<svg xmlns="http://www.w3.org/2000/svg">
<defs>
<font
   horiz-adv-x="1000"
   id="font3"
   horiz-origin-x="0"
   horiz-origin-y="0"
   vert-origin-x="0"
   vert-origin-y="0"
   vert-adv-y="0">
<!-- Copyright 2000, 2004 Adobe Systems Incorporated. All Rights Reserved. U.S. Patent D454,582.Myriad is a registered trademark of Adobe Systems Incorporated. -->
<font-face
   font-family="MyriadPro-Semibold"
   units-per-em="1000"
   underline-position="-100"
   underline-thickness="50"
   id="font-face5" />
<missing-glyph
   horiz-adv-x="500"
   d="M0,0l500,0l0,700l-500,0M250,395l-170,255l340,0M280,350l170,255l0,-510M80,50l170,255l170,-255M50,605l170,-255l-170,-255z"
   id="missing-glyph7" />
<glyph
   unicode="A"
   horiz-adv-x="636"
   d="M420,191l61,-191l132,0l-219,674l-157,0l-216,-674l127,0l58,191M226,284l52,166C290,490 300,537 310,576l2,0C322,537 333,491 346,450l53,-166z"
   id="glyph9" />
<glyph
   unicode="Æ"
   horiz-adv-x="832"
   d="M128,0l89,208l201,0l27,-208l357,0l0,101l-252,0l-25,196l238,0l0,100l-253,0l-21,176l280,0l1,101l-473,0l-296,-674M255,307l74,178C342,517 356,554 368,587l3,0C374,554 379,515 383,484l21,-177z"
   id="glyph11" />
<glyph
   unicode="Ǽ"
   horiz-adv-x="832"
   d="M128,0l89,208l201,0l27,-208l357,0l0,101l-252,0l-25,196l238,0l0,100l-253,0l-21,176l280,0l1,101l-473,0l-296,-674M255,307l74,178C342,517 356,554 368,587l3,0C374,554 379,515 383,484l21,-177M484,830l-88,-120l99,0l124,120z"
   id="glyph13" />
<glyph
   unicode="Á"
   horiz-adv-x="636"
   d="M420,191l61,-191l132,0l-219,674l-157,0l-216,-674l127,0l58,191M226,284l52,166C290,490 300,537 310,576l2,0C322,537 333,491 346,450l53,-166M343,830l-88,-120l99,0l124,120z"
   id="glyph15" />
<glyph
   unicode="Ă"
   horiz-adv-x="636"
   d="M420,191l61,-191l132,0l-219,674l-157,0l-216,-674l127,0l58,191M226,284l52,166C290,490 300,537 310,576l2,0C322,537 333,491 346,450l53,-166M184,827C186,760 224,709 316,709C408,709 448,760 450,827l-66,0C379,802 362,779 317,779C272,779 256,804 252,827z"
   id="glyph17" />
<glyph
   unicode="Â"
   horiz-adv-x="636"
   d="M420,191l61,-191l132,0l-219,674l-157,0l-216,-674l127,0l58,191M226,284l52,166C290,490 300,537 310,576l2,0C322,537 333,491 346,450l53,-166M273,829l-101,-119l90,0l56,65l2,0l57,-65l92,0l-103,119z"
   id="glyph19" />
<glyph
   unicode="Ä"
   horiz-adv-x="636"
   d="M420,191l61,-191l132,0l-219,674l-157,0l-216,-674l127,0l58,191M226,284l52,166C290,490 300,537 310,576l2,0C322,537 333,491 346,450l53,-166M223,715C257,715 281,743 281,776C281,810 256,836 223,836C189,836 163,810 163,776C163,743 188,715 222,715M420,715C455,715 479,743 479,776C479,810 454,836 421,836C386,836 361,810 361,776C361,743 385,715 419,715z"
   id="glyph21" />
<glyph
   unicode="À"
   horiz-adv-x="636"
   d="M420,191l61,-191l132,0l-219,674l-157,0l-216,-674l127,0l58,191M226,284l52,166C290,490 300,537 310,576l2,0C322,537 333,491 346,450l53,-166M157,830l124,-119l99,0l-88,119z"
   id="glyph23" />
<glyph
   unicode="Α"
   horiz-adv-x="636"
   d="M420,191l61,-191l132,0l-219,674l-157,0l-216,-674l127,0l58,191M226,284l52,166C290,490 300,537 310,576l2,0C322,537 333,491 346,450l53,-166z"
   id="glyph25" />
<glyph
   unicode="Ά"
   horiz-adv-x="642"
   d="M425,191l61,-191l133,0l-219,674l-157,0l-217,-674l128,0l57,191M231,284l52,166C295,490 306,537 315,576l3,0C328,537 339,491 352,450l53,-166M43,674l-4,-165l71,0l35,165z"
   id="glyph27" />
<glyph
   unicode="Ā"
   horiz-adv-x="636"
   d="M420,191l61,-191l132,0l-219,674l-157,0l-216,-674l127,0l58,191M226,284l52,166C290,490 300,537 310,576l2,0C322,537 333,491 346,450l53,-166M190,803l0,-69l251,0l0,69z"
   id="glyph29" />
<glyph
   unicode="Ą"
   horiz-adv-x="636"
   d="M394,674l-157,0l-216,-674l127,0l58,191l214,0l60,-189C463,-20 433,-68 433,-115C433,-180 474,-213 537,-213C566,-213 605,-204 630,-185l-18,59C601,-131 585,-135 567,-135C537,-135 514,-113 514,-80C514,-50 540,-17 552,-1l61,1M226,284l52,166C290,490 300,537 310,576l2,0C322,537 333,491 346,450l53,-166z"
   id="glyph31" />
<glyph
   unicode="Å"
   horiz-adv-x="636"
   d="M420,191l61,-191l132,0l-219,674l-157,0l-216,-674l127,0l58,191M226,284l52,166C290,490 300,537 310,576l2,0C322,537 333,491 346,450l53,-166M317,889C248,889 209,846 209,793C209,742 250,701 317,701C383,701 425,742 425,794C425,847 387,889 318,889M316,845C345,845 362,821 362,795C362,767 345,745 316,745C288,745 270,769 270,793C270,820 286,845 315,845z"
   id="glyph33" />
<glyph
   unicode="Ã"
   horiz-adv-x="636"
   d="M420,191l61,-191l132,0l-219,674l-157,0l-216,-674l127,0l58,191M226,284l52,166C290,490 300,537 310,576l2,0C322,537 333,491 346,450l53,-166M248,715C250,743 259,758 273,758C287,758 299,750 317,740C337,729 356,721 381,721C430,721 456,756 454,833l-58,0C393,801 385,792 369,792C355,792 339,801 323,811C303,822 286,831 261,831C215,831 186,789 188,715z"
   id="glyph35" />
<glyph
   unicode="B"
   horiz-adv-x="576"
   d="M71,2C102,-2 154,-7 222,-7C345,-7 424,14 472,56C511,88 537,135 537,195C537,288 472,344 401,362l0,2C474,391 513,448 513,510C513,567 485,611 443,636C397,668 341,679 250,679C181,679 110,673 71,665M193,583C206,586 227,588 263,588C341,588 389,559 389,496C389,439 341,399 256,399l-63,0M193,309l61,0C339,309 407,277 407,199C407,116 337,86 258,86C230,86 209,86 193,89z"
   id="glyph37" />
<glyph
   unicode="Β"
   horiz-adv-x="576"
   d="M71,2C102,-2 154,-7 222,-7C345,-7 424,14 472,56C511,88 537,135 537,195C537,288 472,344 401,362l0,2C474,391 513,448 513,510C513,567 485,611 443,636C397,668 341,679 250,679C181,679 110,673 71,665M193,583C206,586 227,588 263,588C341,588 389,559 389,496C389,439 341,399 256,399l-63,0M193,309l61,0C339,309 407,277 407,199C407,116 337,86 258,86C230,86 209,86 193,89z"
   id="glyph39" />
<glyph
   unicode="C"
   horiz-adv-x="588"
   d="M534,117C502,102 450,92 400,92C252,92 165,187 165,335C165,497 264,583 401,583C457,583 501,571 533,557l27,98C535,668 477,685 396,685C190,685 36,551 36,329C36,124 166,-11 380,-11C461,-11 525,5 554,20z"
   id="glyph41" />
<glyph
   unicode="Ć"
   horiz-adv-x="588"
   d="M534,117C502,102 450,92 400,92C252,92 165,187 165,335C165,497 264,583 401,583C457,583 501,571 533,557l27,98C535,668 477,685 396,685C190,685 36,551 36,329C36,124 166,-11 380,-11C461,-11 525,5 554,20M388,831l-88,-120l99,0l124,120z"
   id="glyph43" />
<glyph
   unicode="Č"
   horiz-adv-x="588"
   d="M534,117C502,102 450,92 400,92C252,92 165,187 165,335C165,497 264,583 401,583C457,583 501,571 533,557l27,98C535,668 477,685 396,685C190,685 36,551 36,329C36,124 166,-11 380,-11C461,-11 525,5 554,20M404,712l101,119l-91,0l-55,-66l-2,0l-57,66l-92,0l103,-119z"
   id="glyph45" />
<glyph
   unicode="Ç"
   horiz-adv-x="592"
   d="M534,117C502,102 449,92 400,92C252,92 165,187 165,335C165,497 264,583 401,583C457,583 501,571 533,557l27,98C535,668 477,685 396,685C190,685 36,551 36,329C36,142 142,16 321,-6l-40,-80C332,-92 359,-104 359,-126C359,-146 342,-154 321,-154C301,-154 280,-148 265,-140l-18,-55C268,-206 298,-213 327,-213C381,-213 438,-190 438,-125C438,-81 405,-55 367,-47l21,37C467,-9 526,6 554,20z"
   id="glyph47" />
<glyph
   unicode="Ĉ"
   horiz-adv-x="588"
   d="M534,117C502,102 450,92 400,92C252,92 165,187 165,335C165,497 264,583 401,583C457,583 501,571 533,557l27,98C535,668 477,685 396,685C190,685 36,551 36,329C36,124 166,-11 380,-11C461,-11 525,5 554,20M307,833l-101,-119l90,0l56,65l2,0l57,-65l92,0l-103,119z"
   id="glyph49" />
<glyph
   unicode="Ċ"
   horiz-adv-x="588"
   d="M534,117C502,102 450,92 400,92C252,92 165,187 165,335C165,497 264,583 401,583C457,583 501,571 533,557l27,98C535,668 477,685 396,685C190,685 36,551 36,329C36,124 166,-11 380,-11C461,-11 525,5 554,20M354,716C388,716 413,744 413,776C413,809 388,836 355,836C320,836 293,809 293,776C293,744 320,716 353,716z"
   id="glyph51" />
<glyph
   unicode="Χ"
   horiz-adv-x="594"
   d="M574,0l-205,345l197,329l-141,0l-72,-139C332,494 318,464 300,422l-2,0C280,460 264,493 242,535l-73,139l-141,0l192,-333l-200,-341l141,0l67,134C255,186 273,222 289,261l3,0C311,222 330,186 359,134l73,-134z"
   id="glyph53" />
<glyph
   unicode="D"
   horiz-adv-x="683"
   d="M71,2C111,-3 165,-7 237,-7C368,-7 475,24 542,85C606,143 647,233 647,353C647,468 607,548 542,601C480,653 393,679 267,679C194,679 125,674 71,665M194,576C211,580 239,583 278,583C432,583 518,498 517,349C517,178 422,90 262,91C237,91 211,91 194,94z"
   id="glyph55" />
<glyph
   unicode="Ď"
   horiz-adv-x="683"
   d="M71,2C111,-3 165,-7 237,-7C368,-7 475,24 542,85C606,143 647,233 647,353C647,468 607,548 542,601C480,653 393,679 267,679C194,679 125,674 71,665M194,576C211,580 239,583 278,583C432,583 518,498 517,349C517,178 422,90 262,91C237,91 211,91 194,94M363,711l101,119l-91,0l-55,-66l-2,0l-57,66l-92,0l103,-119z"
   id="glyph57" />
<glyph
   unicode="Đ"
   horiz-adv-x="689"
   d="M1,294l76,0l0,-294C117,-5 172,-9 243,-9C374,-9 481,22 549,84C612,142 654,232 654,353C654,469 614,552 548,605C486,657 400,682 273,682C200,682 132,676 77,667l0,-276l-76,0M355,391l-155,0l0,188C218,582 245,586 284,586C439,586 524,503 524,351C524,176 430,89 269,89C243,89 217,89 200,92l0,202l155,0z"
   id="glyph59" />
<glyph
   unicode="∆"
   horiz-adv-x="603"
   d="M569,0l0,65l-193,588l-145,0l-197,-589l0,-64M438,100l-280,0l98,302C270,449 287,517 295,551l3,0C309,508 329,438 343,392z"
   id="glyph61" />
<glyph
   unicode="E"
   horiz-adv-x="515"
   d="M448,399l-254,0l0,174l269,0l0,101l-392,0l0,-674l407,0l0,101l-284,0l0,198l254,0z"
   id="glyph63" />
<glyph
   unicode="É"
   horiz-adv-x="515"
   d="M448,399l-254,0l0,174l269,0l0,101l-392,0l0,-674l407,0l0,101l-284,0l0,198l254,0M295,830l-88,-120l99,0l124,120z"
   id="glyph65" />
<glyph
   unicode="Ĕ"
   horiz-adv-x="515"
   d="M448,399l-254,0l0,174l269,0l0,101l-392,0l0,-674l407,0l0,101l-284,0l0,198l254,0M133,832C135,765 173,714 265,714C357,714 397,765 399,832l-66,0C328,807 311,784 266,784C221,784 205,809 201,832z"
   id="glyph67" />
<glyph
   unicode="Ě"
   horiz-adv-x="515"
   d="M448,399l-254,0l0,174l269,0l0,101l-392,0l0,-674l407,0l0,101l-284,0l0,198l254,0M312,710l101,119l-91,0l-55,-66l-2,0l-57,66l-92,0l103,-119z"
   id="glyph69" />
<glyph
   unicode="Ê"
   horiz-adv-x="515"
   d="M448,399l-254,0l0,174l269,0l0,101l-392,0l0,-674l407,0l0,101l-284,0l0,198l254,0M222,829l-101,-119l90,0l56,65l2,0l57,-65l92,0l-103,119z"
   id="glyph71" />
<glyph
   unicode="Ë"
   horiz-adv-x="515"
   d="M448,399l-254,0l0,174l269,0l0,101l-392,0l0,-674l407,0l0,101l-284,0l0,198l254,0M166,716C200,716 224,744 224,777C224,811 199,837 166,837C132,837 106,811 106,777C106,744 131,716 165,716M363,716C398,716 422,744 422,777C422,811 397,837 364,837C329,837 304,811 304,777C304,744 328,716 362,716z"
   id="glyph73" />
<glyph
   unicode="Ė"
   horiz-adv-x="515"
   d="M448,399l-254,0l0,174l269,0l0,101l-392,0l0,-674l407,0l0,101l-284,0l0,198l254,0M261,717C295,717 320,745 320,777C320,810 295,837 262,837C227,837 200,810 200,777C200,745 227,717 260,717z"
   id="glyph75" />
<glyph
   unicode="È"
   horiz-adv-x="515"
   d="M448,399l-254,0l0,174l269,0l0,101l-392,0l0,-674l407,0l0,101l-284,0l0,198l254,0M115,830l124,-119l99,0l-88,119z"
   id="glyph77" />
<glyph
   unicode="Ē"
   horiz-adv-x="515"
   d="M448,399l-254,0l0,174l269,0l0,101l-392,0l0,-674l407,0l0,101l-284,0l0,198l254,0M140,803l0,-69l251,0l0,69z"
   id="glyph79" />
<glyph
   unicode="Ŋ"
   horiz-adv-x="676"
   d="M184,0l0,241C184,352 183,441 178,528l3,1C214,453 259,370 302,297l183,-308C477,-67 439,-98 366,-114l27,-94C525,-191 605,-115 605,44l0,630l-114,0l0,-235C491,336 494,249 502,159l-2,0C469,232 430,310 385,385l-174,289l-140,0l0,-674z"
   id="glyph81" />
<glyph
   unicode="Ę"
   horiz-adv-x="515"
   d="M466,-126C452,-132 438,-134 423,-134C399,-134 382,-121 382,-98C382,-64 420,-24 457,0C464,0 471,0 478,0l0,101l-284,0l0,198l254,0l0,100l-254,0l0,174l269,0l0,101l-392,0l0,-674l294,0C331,-24 290,-70 290,-126C290,-181 327,-213 388,-213C425,-213 458,-204 484,-186z"
   id="glyph83" />
<glyph
   unicode="Ε"
   horiz-adv-x="515"
   d="M448,399l-254,0l0,174l269,0l0,101l-392,0l0,-674l407,0l0,101l-284,0l0,198l254,0z"
   id="glyph85" />
<glyph
   unicode="Έ"
   horiz-adv-x="606"
   d="M539,399l-254,0l0,174l269,0l0,101l-393,0l0,-674l408,0l0,101l-284,0l0,198l254,0M5,674l-5,-165l71,0l36,165z"
   id="glyph87" />
<glyph
   unicode="Η"
   horiz-adv-x="672"
   d="M71,674l0,-674l123,0l0,297l285,0l0,-297l123,0l0,674l-123,0l0,-270l-285,0l0,270z"
   id="glyph89" />
<glyph
   unicode="Ή"
   horiz-adv-x="763"
   d="M161,674l0,-674l123,0l0,297l285,0l0,-297l123,0l0,674l-123,0l0,-270l-285,0l0,270M5,674l-5,-165l71,0l36,165z"
   id="glyph91" />
<glyph
   unicode="Ð"
   horiz-adv-x="689"
   d="M1,294l76,0l0,-294C117,-5 172,-9 243,-9C374,-9 481,22 549,84C612,142 654,232 654,353C654,469 614,552 548,605C486,657 400,682 273,682C200,682 132,676 77,667l0,-276l-76,0M355,391l-155,0l0,188C218,582 245,586 284,586C439,586 524,503 524,351C524,176 430,89 269,89C243,89 217,89 200,92l0,202l155,0z"
   id="glyph93" />
<glyph
   unicode="€"
   horiz-adv-x="536"
   d="M492,118C469,106 423,89 374,89C322,89 274,106 240,143C219,166 204,198 197,241l265,0l0,61l-276,0C186,308 186,313 186,319C186,331 186,343 188,354l274,0l0,62l-262,0C208,454 223,487 244,509C277,546 321,564 371,564C416,564 457,551 483,537l25,93C475,646 425,661 365,661C276,661 203,627 149,567C113,529 86,477 74,416l-67,0l0,-62l58,0C64,343 63,330 63,318C63,313 63,307 63,302l-56,0l0,-61l64,0C80,179 102,129 134,92C187,25 269,-11 360,-11C424,-11 480,9 513,29z"
   id="glyph95" />
<glyph
   unicode=""
   horiz-adv-x="547"
   d="M483,105C460,93 418,81 374,81C328,81 290,94 258,124C244,138 234,156 228,178l226,0l0,59l-240,0C213,248 213,256 213,264C213,270 213,279 214,289l240,0l0,59l-226,0C233,371 245,391 261,406C291,436 331,449 373,449C417,449 450,438 470,428l25,84C470,524 427,539 367,539C293,539 221,513 170,462C140,432 117,393 106,348l-65,0l0,-59l56,0C95,278 95,267 95,260C95,255 96,247 96,237l-56,0l0,-59l65,0C116,132 138,91 168,61C215,13 283,-11 354,-11C416,-11 470,6 497,22z"
   id="glyph97" />
<glyph
   unicode="F"
   horiz-adv-x="509"
   d="M71,0l123,0l0,286l248,0l0,101l-248,0l0,186l266,0l0,101l-389,0z"
   id="glyph99" />
<glyph
   unicode="G"
   horiz-adv-x="666"
   d="M611,372l-238,0l0,-97l119,0l0,-168C476,99 443,93 399,93C259,93 165,184 165,337C165,494 266,579 410,579C481,579 526,566 563,550l27,99C559,664 494,681 411,681C188,681 36,544 36,331C35,229 70,140 130,83C194,22 280,-7 394,-7C484,-7 568,15 611,31z"
   id="glyph101" />
<glyph
   unicode=""
   horiz-adv-x="666"
   d="M611,372l-238,0l0,-97l119,0l0,-168C476,99 443,93 399,93C259,93 165,184 165,337C165,494 266,579 410,579C481,579 526,566 563,550l27,99C559,664 494,681 411,681C188,681 36,544 36,331C35,229 70,140 130,83C194,22 280,-7 394,-7C484,-7 568,15 611,31M305,715C307,743 316,758 330,758C344,758 356,750 374,740C394,729 413,721 438,721C487,721 513,756 511,833l-58,0C450,801 442,792 426,792C412,792 396,801 380,811C360,822 343,831 318,831C272,831 243,789 245,715z"
   id="glyph103" />
<glyph
   unicode="Γ"
   horiz-adv-x="468"
   d="M71,674l0,-674l123,0l0,571l264,0l0,103z"
   id="glyph105" />
<glyph
   unicode="Ğ"
   horiz-adv-x="666"
   d="M611,372l-238,0l0,-97l119,0l0,-168C476,99 443,93 399,93C259,93 165,184 165,337C165,494 266,579 410,579C481,579 526,566 563,550l27,99C559,664 494,681 411,681C188,681 36,544 36,331C35,229 70,140 130,83C194,22 280,-7 394,-7C484,-7 568,15 611,31M234,835C236,768 274,717 366,717C458,717 498,768 500,835l-66,0C429,810 412,787 367,787C322,787 306,812 302,835z"
   id="glyph107" />
<glyph
   unicode="Ĝ"
   horiz-adv-x="666"
   d="M611,372l-238,0l0,-97l119,0l0,-168C476,99 443,93 399,93C259,93 165,184 165,337C165,494 266,579 410,579C481,579 526,566 563,550l27,99C559,664 494,681 411,681C188,681 36,544 36,331C35,229 70,140 130,83C194,22 280,-7 394,-7C484,-7 568,15 611,31M320,832l-101,-119l90,0l56,65l2,0l57,-65l92,0l-103,119z"
   id="glyph109" />
<glyph
   unicode="Ģ"
   horiz-adv-x="666"
   d="M611,372l-238,0l0,-97l119,0l0,-168C476,99 443,93 399,93C259,93 165,184 165,337C165,494 266,579 410,579C481,579 526,566 563,550l27,99C559,664 494,681 411,681C188,681 36,544 36,331C35,229 70,140 130,83C194,22 280,-7 394,-7C484,-7 568,15 611,31M291,-232C367,-229 437,-195 437,-116C437,-82 417,-54 397,-40l-87,-16C325,-70 341,-92 341,-116C341,-152 307,-172 272,-179z"
   id="glyph111" />
<glyph
   unicode="Ġ"
   horiz-adv-x="666"
   d="M611,372l-238,0l0,-97l119,0l0,-168C476,99 443,93 399,93C259,93 165,184 165,337C165,494 266,579 410,579C481,579 526,566 563,550l27,99C559,664 494,681 411,681C188,681 36,544 36,331C35,229 70,140 130,83C194,22 280,-7 394,-7C484,-7 568,15 611,31M369,716C403,716 428,744 428,776C428,809 403,836 370,836C335,836 308,809 308,776C308,744 335,716 368,716z"
   id="glyph113" />
<glyph
   unicode="H"
   horiz-adv-x="672"
   d="M71,674l0,-674l123,0l0,297l285,0l0,-297l123,0l0,674l-123,0l0,-270l-285,0l0,270z"
   id="glyph115" />
<glyph
   unicode="Ħ"
   horiz-adv-x="681"
   d="M667,475l0,75l-61,0l0,124l-123,0l0,-124l-285,0l0,124l-123,0l0,-124l-61,0l0,-75l61,0l0,-475l123,0l0,277l285,0l0,-277l123,0l0,475M483,383l-285,0l0,92l285,0z"
   id="glyph117" />
<glyph
   unicode="Ĥ"
   horiz-adv-x="672"
   d="M71,674l0,-674l123,0l0,297l285,0l0,-297l123,0l0,674l-123,0l0,-270l-285,0l0,270M290,829l-101,-119l90,0l56,65l2,0l57,-65l92,0l-103,119z"
   id="glyph119" />
<glyph
   unicode="I"
   horiz-adv-x="264"
   d="M71,674l0,-674l123,0l0,674z"
   id="glyph121" />
<glyph
   unicode="Ĳ"
   horiz-adv-x="657"
   d="M71,674l0,-674l123,0l0,674M469,241C469,124 426,92 356,92C327,92 300,98 280,104l-15,-99C291,-5 334,-11 368,-11C502,-11 592,51 592,237l0,437l-123,0z"
   id="glyph123" />
<glyph
   unicode="Í"
   horiz-adv-x="264"
   d="M71,674l0,-674l123,0l0,674M156,830l-88,-120l99,0l124,120z"
   id="glyph125" />
<glyph
   unicode="Ĭ"
   horiz-adv-x="264"
   d="M71,674l0,-674l123,0l0,674M-1,832C1,765 39,714 131,714C223,714 263,765 265,832l-66,0C194,807 177,784 132,784C87,784 71,809 67,832z"
   id="glyph127" />
<glyph
   unicode="Î"
   horiz-adv-x="264"
   d="M71,674l0,-674l123,0l0,674M85,829l-101,-119l90,0l56,65l2,0l57,-65l92,0l-103,119z"
   id="glyph129" />
<glyph
   unicode="Ï"
   horiz-adv-x="264"
   d="M71,674l0,-674l123,0l0,674M34,716C68,716 92,744 92,777C92,811 67,837 34,837C0,837 -26,811 -26,777C-26,744 -1,716 33,716M231,716C266,716 290,744 290,777C290,811 265,837 232,837C197,837 172,811 172,777C172,744 196,716 230,716z"
   id="glyph131" />
<glyph
   unicode="İ"
   horiz-adv-x="264"
   d="M71,674l0,-674l123,0l0,674M133,717C167,717 192,745 192,777C192,810 167,837 134,837C99,837 72,810 72,777C72,745 99,717 132,717z"
   id="glyph133" />
<glyph
   unicode="Ì"
   horiz-adv-x="264"
   d="M71,674l0,-674l123,0l0,674M-26,830l124,-119l99,0l-88,119z"
   id="glyph135" />
<glyph
   unicode="Ī"
   horiz-adv-x="264"
   d="M71,674l0,-674l123,0l0,674M7,803l0,-69l251,0l0,69z"
   id="glyph137" />
<glyph
   unicode="Į"
   horiz-adv-x="264"
   d="M194,674l-123,0l0,-674C58,-23 31,-70 31,-118C31,-182 72,-215 134,-215C164,-215 203,-206 227,-187l-18,59C199,-133 184,-136 165,-136C134,-136 112,-116 112,-82C112,-52 131,-19 143,0l51,0z"
   id="glyph139" />
<glyph
   unicode="Ι"
   horiz-adv-x="264"
   d="M71,674l0,-674l123,0l0,674z"
   id="glyph141" />
<glyph
   unicode="Ϊ"
   horiz-adv-x="264"
   d="M35,713C69,713 93,740 93,773C93,807 68,833 35,833C1,833 -25,806 -25,773C-25,740 0,713 34,713M230,713C265,713 289,740 289,773C289,807 264,833 230,833C196,833 171,806 171,773C171,740 195,713 229,713M71,674l0,-674l123,0l0,674z"
   id="glyph143" />
<glyph
   unicode="Ί"
   horiz-adv-x="355"
   d="M161,674l0,-674l124,0l0,674M5,674l-5,-165l71,0l36,165z"
   id="glyph145" />
<glyph
   unicode="Ĩ"
   horiz-adv-x="264"
   d="M71,674l0,-674l123,0l0,674M59,715C61,743 70,758 84,758C98,758 110,750 128,740C148,729 167,721 192,721C241,721 267,756 265,833l-58,0C204,801 196,792 180,792C166,792 150,801 134,811C114,822 97,831 72,831C26,831 -3,789 -1,715z"
   id="glyph147" />
<glyph
   unicode="J"
   horiz-adv-x="392"
   d="M205,241C205,124 162,92 92,92C63,92 36,98 16,104l-15,-99C27,-5 70,-11 104,-11C238,-11 328,51 328,237l0,437l-123,0z"
   id="glyph149" />
<glyph
   unicode="Ĵ"
   horiz-adv-x="392"
   d="M205,241C205,124 162,92 92,92C63,92 36,98 16,104l-15,-99C27,-5 70,-11 104,-11C238,-11 328,51 328,237l0,437l-123,0M217,829l-101,-119l90,0l56,65l2,0l57,-65l92,0l-103,119z"
   id="glyph151" />
<glyph
   unicode="K"
   horiz-adv-x="582"
   d="M71,0l122,0l0,237l60,72l191,-309l144,0l-247,387l232,287l-152,0l-176,-237C229,414 212,390 196,364l-3,0l0,310l-122,0z"
   id="glyph153" />
<glyph
   unicode="Κ"
   horiz-adv-x="582"
   d="M71,0l122,0l0,237l60,72l191,-309l144,0l-247,387l232,287l-152,0l-176,-237C229,414 212,390 196,364l-3,0l0,310l-122,0z"
   id="glyph155" />
<glyph
   unicode="Ķ"
   horiz-adv-x="582"
   d="M71,0l122,0l0,237l60,72l191,-309l144,0l-247,387l232,287l-152,0l-176,-237C229,414 212,390 196,364l-3,0l0,310l-122,0M229,-231C305,-228 375,-194 375,-115C375,-81 355,-53 335,-39l-87,-16C263,-69 279,-91 279,-115C279,-151 245,-171 210,-178z"
   id="glyph157" />
<glyph
   unicode="L"
   horiz-adv-x="493"
   d="M71,0l400,0l0,103l-277,0l0,571l-123,0z"
   id="glyph159" />
<glyph
   unicode="Ĺ"
   horiz-adv-x="493"
   d="M71,0l400,0l0,103l-277,0l0,571l-123,0M172,830l-88,-120l99,0l124,120z"
   id="glyph161" />
<glyph
   unicode="Λ"
   horiz-adv-x="630"
   d="M614,0l-222,674l-155,0l-216,-674l128,0l128,431C289,477 299,523 309,568l2,0C322,524 333,478 346,431l134,-431z"
   id="glyph163" />
<glyph
   unicode="Ľ"
   horiz-adv-x="493"
   d="M71,0l400,0l0,103l-277,0l0,571l-123,0M278,494C354,497 424,531 424,610C424,644 404,672 384,686l-87,-16C312,656 328,634 328,610C328,574 294,554 259,547z"
   id="glyph165" />
<glyph
   unicode="Ļ"
   horiz-adv-x="493"
   d="M71,0l400,0l0,103l-277,0l0,571l-123,0M188,-232C264,-229 334,-195 334,-116C334,-82 314,-54 294,-40l-87,-16C222,-70 238,-92 238,-116C238,-152 204,-172 169,-179z"
   id="glyph167" />
<glyph
   unicode="Ŀ"
   horiz-adv-x="493"
   d="M71,0l400,0l0,103l-277,0l0,571l-123,0M364,315C398,315 423,343 423,375C423,408 398,435 365,435C330,435 303,408 303,375C303,343 330,315 363,315z"
   id="glyph169" />
<glyph
   unicode="Ł"
   horiz-adv-x="499"
   d="M476,0l0,103l-277,0l0,230l130,90l0,89l-130,-90l0,252l-123,0l0,-335l-79,-56l0,-88l79,56l0,-251z"
   id="glyph171" />
<glyph
   unicode="M"
   horiz-adv-x="827"
   d="M653,0l120,0l-39,674l-160,0l-93,-270C455,325 432,242 414,169l-3,0C394,244 373,324 349,403l-88,271l-162,0l-45,-674l115,0l15,271C189,363 193,470 196,559l2,0C216,474 240,382 266,296l90,-288l95,0l98,292C579,385 607,476 629,559l3,0C631,467 636,362 640,275z"
   id="glyph173" />
<glyph
   unicode=""
   horiz-adv-x="827"
   d="M653,0l120,0l-39,674l-160,0l-93,-270C455,325 432,242 414,169l-3,0C394,244 373,324 349,403l-88,271l-162,0l-45,-674l115,0l15,271C189,363 193,470 196,559l2,0C216,474 240,382 266,296l90,-288l95,0l98,292C579,385 607,476 629,559l3,0C631,467 636,362 640,275M366,829l-101,-119l90,0l56,65l2,0l57,-65l92,0l-103,119z"
   id="glyph175" />
<glyph
   unicode="Μ"
   horiz-adv-x="827"
   d="M653,0l120,0l-39,674l-160,0l-93,-270C455,325 432,242 414,169l-3,0C394,244 373,324 349,403l-88,271l-162,0l-45,-674l115,0l15,271C189,363 193,470 196,559l2,0C216,474 240,382 266,296l90,-288l95,0l98,292C579,385 607,476 629,559l3,0C631,467 636,362 640,275z"
   id="glyph177" />
<glyph
   unicode="N"
   horiz-adv-x="676"
   d="M184,0l0,241C184,352 183,441 178,528l3,1C214,453 259,370 302,297l176,-297l127,0l0,674l-114,0l0,-235C491,336 494,249 502,159l-2,0C469,232 430,310 385,385l-174,289l-140,0l0,-674z"
   id="glyph179" />
<glyph
   unicode=""
   horiz-adv-x="676"
   d="M184,0l0,241C184,352 183,441 178,528l3,1C214,453 259,370 302,297l176,-297l127,0l0,674l-114,0l0,-235C491,336 494,249 502,159l-2,0C469,232 430,310 385,385l-174,289l-140,0l0,-674M291,829l-101,-119l90,0l56,65l2,0l57,-65l92,0l-103,119z"
   id="glyph181" />
<glyph
   unicode="Ń"
   horiz-adv-x="676"
   d="M184,0l0,241C184,352 183,441 178,528l3,1C214,453 259,370 302,297l176,-297l127,0l0,674l-114,0l0,-235C491,336 494,249 502,159l-2,0C469,232 430,310 385,385l-174,289l-140,0l0,-674M361,830l-88,-120l99,0l124,120z"
   id="glyph183" />
<glyph
   unicode="Ň"
   horiz-adv-x="676"
   d="M184,0l0,241C184,352 183,441 178,528l3,1C214,453 259,370 302,297l176,-297l127,0l0,674l-114,0l0,-235C491,336 494,249 502,159l-2,0C469,232 430,310 385,385l-174,289l-140,0l0,-674M387,707l101,119l-91,0l-55,-66l-2,0l-57,66l-92,0l103,-119z"
   id="glyph185" />
<glyph
   unicode="Ņ"
   horiz-adv-x="676"
   d="M184,0l0,241C184,352 183,441 178,528l3,1C214,453 259,370 302,297l176,-297l127,0l0,674l-114,0l0,-235C491,336 494,249 502,159l-2,0C469,232 430,310 385,385l-174,289l-140,0l0,-674M273,-231C349,-228 419,-194 419,-115C419,-81 399,-53 379,-39l-87,-16C307,-69 323,-91 323,-115C323,-151 289,-171 254,-178z"
   id="glyph187" />
<glyph
   unicode="Ñ"
   horiz-adv-x="676"
   d="M184,0l0,241C184,352 183,441 178,528l3,1C214,453 259,370 302,297l176,-297l127,0l0,674l-114,0l0,-235C491,336 494,249 502,159l-2,0C469,232 430,310 385,385l-174,289l-140,0l0,-674M268,715C270,743 279,758 293,758C307,758 319,750 337,740C357,729 376,721 401,721C450,721 476,756 474,833l-58,0C413,801 405,792 389,792C375,792 359,801 343,811C323,822 306,831 281,831C235,831 206,789 208,715z"
   id="glyph189" />
<glyph
   unicode="Ν"
   horiz-adv-x="676"
   d="M184,0l0,241C184,352 183,441 178,528l3,1C214,453 259,370 302,297l176,-297l127,0l0,674l-114,0l0,-235C491,336 494,249 502,159l-2,0C469,232 430,310 385,385l-174,289l-140,0l0,-674z"
   id="glyph191" />
<glyph
   unicode="O"
   horiz-adv-x="704"
   d="M356,685C166,685 36,539 36,332C36,134 156,-11 346,-11C532,-11 669,118 669,344C669,536 553,685 356,685M353,587C476,587 539,466 539,339C539,198 472,87 353,87C235,87 166,197 166,334C166,473 231,587 353,587z"
   id="glyph193" />
<glyph
   unicode="Œ"
   horiz-adv-x="917"
   d="M879,101l-284,0l0,198l254,0l0,100l-254,0l0,174l269,0l0,101l-339,0C507,674 486,677 461,680C437,682 408,685 372,685C173,685 36,550 36,332C36,145 148,-11 368,-11C401,-11 427,-8 451,-6C475,-3 496,0 515,0l364,0M472,100C452,92 420,87 390,87C247,87 165,189 166,336C165,492 255,587 381,587C420,587 450,581 472,572z"
   id="glyph195" />
<glyph
   unicode="Ó"
   horiz-adv-x="704"
   d="M356,685C166,685 36,539 36,332C36,134 156,-11 346,-11C532,-11 669,118 669,344C669,536 553,685 356,685M353,587C476,587 539,466 539,339C539,198 472,87 353,87C235,87 166,197 166,334C166,473 231,587 353,587M378,832l-88,-120l99,0l124,120z"
   id="glyph197" />
<glyph
   unicode="Ŏ"
   horiz-adv-x="704"
   d="M356,685C166,685 36,539 36,332C36,134 156,-11 346,-11C532,-11 669,118 669,344C669,536 553,685 356,685M353,587C476,587 539,466 539,339C539,198 472,87 353,87C235,87 166,197 166,334C166,473 231,587 353,587M219,838C221,771 259,720 351,720C443,720 483,771 485,838l-66,0C414,813 397,790 352,790C307,790 291,815 287,838z"
   id="glyph199" />
<glyph
   unicode="Ô"
   horiz-adv-x="704"
   d="M356,685C166,685 36,539 36,332C36,134 156,-11 346,-11C532,-11 669,118 669,344C669,536 553,685 356,685M353,587C476,587 539,466 539,339C539,198 472,87 353,87C235,87 166,197 166,334C166,473 231,587 353,587M305,831l-101,-119l90,0l56,65l2,0l57,-65l92,0l-103,119z"
   id="glyph201" />
<glyph
   unicode="Ö"
   horiz-adv-x="704"
   d="M356,685C166,685 36,539 36,332C36,134 156,-11 346,-11C532,-11 669,118 669,344C669,536 553,685 356,685M353,587C476,587 539,466 539,339C539,198 472,87 353,87C235,87 166,197 166,334C166,473 231,587 353,587M254,716C288,716 312,744 312,777C312,811 287,837 254,837C220,837 194,811 194,777C194,744 219,716 253,716M451,716C486,716 510,744 510,777C510,811 485,837 452,837C417,837 392,811 392,777C392,744 416,716 450,716z"
   id="glyph203" />
<glyph
   unicode="Ò"
   horiz-adv-x="704"
   d="M356,685C166,685 36,539 36,332C36,134 156,-11 346,-11C532,-11 669,118 669,344C669,536 553,685 356,685M353,587C476,587 539,466 539,339C539,198 472,87 353,87C235,87 166,197 166,334C166,473 231,587 353,587M194,832l124,-119l99,0l-88,119z"
   id="glyph205" />
<glyph
   unicode="Ơ"
   horiz-adv-x="704"
   d="M353,87C234,87 165,201 166,335C165,469 230,587 353,587C476,587 539,466 539,339C539,198 472,87 353,87M597,742C607,722 616,698 616,673C616,645 604,631 575,631C546,631 503,655 471,666C443,676 403,685 356,685C166,685 36,539 36,332C36,134 156,-11 346,-11C532,-11 669,118 669,344C669,439 641,513 603,564C675,563 708,607 708,665C708,703 698,734 687,758z"
   id="glyph207" />
<glyph
   unicode="Ő"
   horiz-adv-x="704"
   d="M356,685C166,685 36,539 36,332C36,134 156,-11 346,-11C532,-11 669,118 669,344C669,536 553,685 356,685M353,587C476,587 539,466 539,339C539,198 472,87 353,87C235,87 166,197 166,334C166,473 231,587 353,587M298,833l-72,-114l87,0l106,114M464,833l-72,-114l87,0l106,114z"
   id="glyph209" />
<glyph
   unicode="Ō"
   horiz-adv-x="704"
   d="M356,685C166,685 36,539 36,332C36,134 156,-11 346,-11C532,-11 669,118 669,344C669,536 553,685 356,685M353,587C476,587 539,466 539,339C539,198 472,87 353,87C235,87 166,197 166,334C166,473 231,587 353,587M227,806l0,-69l251,0l0,69z"
   id="glyph211" />
<glyph
   unicode="Ω"
   horiz-adv-x="727"
   d="M555,98C614,149 682,240 682,374C682,540 566,685 369,685C179,685 44,547 44,364C44,240 108,148 169,98l0,-3l-138,0l0,-95l279,0l0,74C235,120 172,233 172,350C172,475 245,587 366,587C488,587 555,469 555,351C555,223 492,127 418,74l0,-74l277,0l0,95l-140,0z"
   id="glyph213" />
<glyph
   unicode="Ώ"
   horiz-adv-x="782"
   d="M610,98C670,148 737,239 737,373C737,539 621,685 424,685C234,685 99,546 99,363C99,240 163,148 225,98l0,-3l-139,0l0,-95l279,0l0,74C290,120 227,225 227,350C227,474 300,587 421,587C543,587 610,468 610,350C611,216 547,127 473,74l0,-74l277,0l0,95l-140,0M5,674l-5,-165l71,0l36,165z"
   id="glyph215" />
<glyph
   unicode="Ο"
   horiz-adv-x="704"
   d="M347,-11C532,-11 669,118 669,344C669,536 553,685 356,685C166,685 36,539 36,332C36,134 156,-11 346,-11M352,87C234,87 165,201 166,335C165,469 230,587 353,587C476,587 539,466 539,339C539,198 472,87 353,87z"
   id="glyph217" />
<glyph
   unicode="Ό"
   horiz-adv-x="763"
   d="M406,-11C591,-11 728,118 728,344C728,536 612,685 415,685C225,685 94,539 94,332C94,134 215,-11 405,-11M410,87C293,87 224,201 224,335C224,469 289,587 412,587C535,587 598,466 598,339C598,198 530,87 411,87M5,674l-5,-165l71,0l36,165z"
   id="glyph219" />
<glyph
   unicode="Ø"
   horiz-adv-x="704"
   d="M135,-56l62,88C242,4 295,-11 353,-11C528,-11 669,115 669,342C669,439 639,528 581,590l59,85l-71,48l-57,-81C466,671 412,685 354,685C167,685 36,539 36,335C36,235 68,145 127,84l-59,-86M198,189l-2,-1C173,233 160,279 160,337C160,474 228,588 353,588C393,588 426,575 454,553M509,481l2,0C536,434 545,386 545,339C545,196 474,86 352,86C312,86 281,98 255,120z"
   id="glyph221" />
<glyph
   unicode="Ǿ"
   horiz-adv-x="704"
   d="M135,-56l62,88C242,4 295,-11 353,-11C528,-11 669,115 669,342C669,439 639,528 581,590l59,85l-71,48l-57,-81C466,671 412,685 354,685C167,685 36,539 36,335C36,235 68,145 127,84l-59,-86M198,189l-2,-1C173,233 160,279 160,337C160,474 228,588 353,588C393,588 426,575 454,553M509,481l2,0C536,434 545,386 545,339C545,196 474,86 352,86C312,86 281,98 255,120M379,836l-88,-120l99,0l124,120z"
   id="glyph223" />
<glyph
   unicode="Õ"
   horiz-adv-x="704"
   d="M356,685C166,685 36,539 36,332C36,134 156,-11 346,-11C532,-11 669,118 669,344C669,536 553,685 356,685M353,587C476,587 539,466 539,339C539,198 472,87 353,87C235,87 166,197 166,334C166,473 231,587 353,587M279,716C281,744 290,759 304,759C318,759 330,751 348,741C368,730 387,722 412,722C461,722 487,757 485,834l-58,0C424,802 416,793 400,793C386,793 370,802 354,812C334,823 317,832 292,832C246,832 217,790 219,716z"
   id="glyph225" />
<glyph
   unicode="P"
   horiz-adv-x="559"
   d="M71,0l122,0l0,254C209,251 230,250 253,250C340,250 417,273 466,322C504,358 524,411 524,475C524,538 498,591 458,624C415,660 349,679 259,679C176,679 115,673 71,665M193,579C206,582 230,585 264,585C349,585 401,545 401,470C401,391 345,346 253,346C228,346 208,347 193,351z"
   id="glyph227" />
<glyph
   unicode="Φ"
   horiz-adv-x="755"
   d="M435,27C580,43 720,144 720,339C720,535 578,636 436,650l0,51l-116,0l0,-51C191,637 35,537 35,334C35,137 177,42 318,27l0,-54l117,0M319,114C241,126 159,202 159,335C159,480 246,554 319,564M435,564C513,554 595,482 595,336C595,194 513,124 435,114z"
   id="glyph229" />
<glyph
   unicode="Π"
   horiz-adv-x="652"
   d="M581,674l-510,0l0,-674l123,0l0,570l264,0l0,-570l123,0z"
   id="glyph231" />
<glyph
   unicode="Ψ"
   horiz-adv-x="717"
   d="M673,674l-119,0l0,-179C554,341 490,293 416,288l0,386l-114,0l0,-385C221,294 163,337 163,469l0,205l-119,0l0,-225C44,271 167,201 302,194l0,-194l114,0l0,194C561,202 673,289 673,479z"
   id="glyph233" />
<glyph
   unicode="Q"
   horiz-adv-x="704"
   d="M673,-11C618,0 553,14 495,30l0,4C594,73 669,182 669,345C669,535 553,685 358,685C165,685 36,539 36,331C36,112 175,-3 331,-11C346,-12 360,-16 375,-21C460,-54 544,-82 638,-108M352,87C234,87 165,199 166,334C165,469 231,587 354,587C476,587 539,468 539,339C539,198 471,87 353,87z"
   id="glyph235" />
<glyph
   unicode="R"
   horiz-adv-x="569"
   d="M71,0l122,0l0,277l62,0C325,275 357,247 376,159C395,75 411,20 421,0l127,0C534,26 516,104 495,188C478,253 449,300 401,318l0,3C464,344 523,403 523,490C523,547 502,594 465,625C420,663 354,679 257,679C186,679 117,673 71,665M193,580C205,583 230,586 269,586C349,586 401,552 401,478C401,411 349,367 266,367l-73,0z"
   id="glyph237" />
<glyph
   unicode="Ŕ"
   horiz-adv-x="569"
   d="M71,0l122,0l0,277l62,0C325,275 357,247 376,159C395,75 411,20 421,0l127,0C534,26 516,104 495,188C478,253 449,300 401,318l0,3C464,344 523,403 523,490C523,547 502,594 465,625C420,663 354,679 257,679C186,679 117,673 71,665M193,580C205,583 230,586 269,586C349,586 401,552 401,478C401,411 349,367 266,367l-73,0M299,832l-88,-120l99,0l124,120z"
   id="glyph239" />
<glyph
   unicode="Ř"
   horiz-adv-x="569"
   d="M71,0l122,0l0,277l62,0C325,275 357,247 376,159C395,75 411,20 421,0l127,0C534,26 516,104 495,188C478,253 449,300 401,318l0,3C464,344 523,403 523,490C523,547 502,594 465,625C420,663 354,679 257,679C186,679 117,673 71,665M193,580C205,583 230,586 269,586C349,586 401,552 401,478C401,411 349,367 266,367l-73,0M325,712l101,119l-91,0l-55,-66l-2,0l-57,66l-92,0l103,-119z"
   id="glyph241" />
<glyph
   unicode="Ŗ"
   horiz-adv-x="569"
   d="M71,0l122,0l0,277l62,0C325,275 357,247 376,159C395,75 411,20 421,0l127,0C534,26 516,104 495,188C478,253 449,300 401,318l0,3C464,344 523,403 523,490C523,547 502,594 465,625C420,663 354,679 257,679C186,679 117,673 71,665M193,580C205,583 230,586 269,586C349,586 401,552 401,478C401,411 349,367 266,367l-73,0M220,-228C296,-225 366,-191 366,-112C366,-78 346,-50 326,-36l-87,-16C254,-66 270,-88 270,-112C270,-148 236,-168 201,-175z"
   id="glyph243" />
<glyph
   unicode="Ρ"
   horiz-adv-x="559"
   d="M71,0l122,0l0,254C209,251 230,250 253,250C340,250 417,273 466,322C504,358 524,411 524,475C524,538 498,591 458,624C415,660 349,679 259,679C176,679 115,673 71,665M193,579C206,582 230,585 264,585C349,585 401,545 401,470C401,391 345,346 253,346C228,346 208,347 193,351z"
   id="glyph245" />
<glyph
   unicode="S"
   horiz-adv-x="519"
   d="M41,32C78,10 152,-11 223,-11C397,-11 479,84 479,192C479,289 422,348 305,392C215,427 176,451 176,503C176,542 210,584 288,584C351,584 398,565 422,552l30,99C417,669 363,685 290,685C144,685 52,601 52,491C52,394 123,335 234,295C320,264 354,234 354,183C354,128 310,91 231,91C168,91 108,111 68,134z"
   id="glyph247" />
<glyph
   unicode="Ś"
   horiz-adv-x="519"
   d="M41,32C78,10 152,-11 223,-11C397,-11 479,84 479,192C479,289 422,348 305,392C215,427 176,451 176,503C176,542 210,584 288,584C351,584 398,565 422,552l30,99C417,669 363,685 290,685C144,685 52,601 52,491C52,394 123,335 234,295C320,264 354,234 354,183C354,128 310,91 231,91C168,91 108,111 68,134M296,832l-88,-120l99,0l124,120z"
   id="glyph249" />
<glyph
   unicode="Š"
   horiz-adv-x="519"
   d="M41,32C78,10 152,-11 223,-11C397,-11 479,84 479,192C479,289 422,348 305,392C215,427 176,451 176,503C176,542 210,584 288,584C351,584 398,565 422,552l30,99C417,669 363,685 290,685C144,685 52,601 52,491C52,394 123,335 234,295C320,264 354,234 354,183C354,128 310,91 231,91C168,91 108,111 68,134M317,712l101,119l-91,0l-55,-66l-2,0l-57,66l-92,0l103,-119z"
   id="glyph251" />
<glyph
   unicode="Ş"
   horiz-adv-x="519"
   d="M41,32C83,8 160,-11 218,-11C220,-11 222,-11 223,-11l-38,-70C236,-86 263,-99 263,-121C263,-140 244,-149 224,-149C206,-149 186,-142 170,-133l-18,-50C170,-194 198,-202 228,-202C286,-202 341,-179 341,-117C341,-79 308,-52 270,-47l24,43C420,18 479,100 479,192C479,289 422,348 305,392C215,427 176,451 176,503C176,542 210,584 288,584C351,584 398,565 422,552l30,99C417,669 363,685 290,685C144,685 52,601 52,491C52,394 123,335 234,295C320,264 354,234 354,183C354,128 310,91 231,91C168,91 108,111 68,134z"
   id="glyph253" />
<glyph
   unicode=""
   horiz-adv-x="340"
   d="M41,32C83,8 160,-11 218,-11C220,-11 222,-11 223,-11l-38,-70C236,-86 263,-99 263,-121C263,-140 244,-149 224,-149C206,-149 186,-142 170,-133l-18,-50C170,-194 198,-202 228,-202C286,-202 341,-179 341,-117C341,-79 308,-52 270,-47l24,43C420,18 479,100 479,192C479,289 422,348 305,392C215,427 176,451 176,503C176,542 210,584 288,584C351,584 398,565 422,552l30,99C417,669 363,685 290,685C144,685 52,601 52,491C52,394 123,335 234,295C320,264 354,234 354,183C354,128 310,91 231,91C168,91 108,111 68,134z"
   id="glyph255" />
<glyph
   unicode="Ŝ"
   horiz-adv-x="519"
   d="M41,32C78,10 152,-11 223,-11C397,-11 479,84 479,192C479,289 422,348 305,392C215,427 176,451 176,503C176,542 210,584 288,584C351,584 398,565 422,552l30,99C417,669 363,685 290,685C144,685 52,601 52,491C52,394 123,335 234,295C320,264 354,234 354,183C354,128 310,91 231,91C168,91 108,111 68,134M214,831l-101,-119l90,0l56,65l2,0l57,-65l92,0l-103,119z"
   id="glyph257" />
<glyph
   unicode="Ș"
   horiz-adv-x="519"
   d="M41,32C78,10 152,-11 223,-11C397,-11 479,84 479,192C479,289 422,348 305,392C215,427 176,451 176,503C176,542 210,584 288,584C351,584 398,565 422,552l30,99C417,669 363,685 290,685C144,685 52,601 52,491C52,394 123,335 234,295C320,264 354,234 354,183C354,128 310,91 231,91C168,91 108,111 68,134M192,-232C268,-229 338,-195 338,-116C338,-82 318,-54 298,-40l-87,-16C226,-70 242,-92 242,-116C242,-152 208,-172 173,-179z"
   id="glyph259" />
<glyph
   unicode="Σ"
   horiz-adv-x="566"
   d="M186,105l191,234l-180,230l0,4l310,0l0,101l-467,0l0,-81l204,-259l-216,-263l0,-71l508,0l0,101l-350,0z"
   id="glyph261" />
<glyph
   unicode="T"
   horiz-adv-x="525"
   d="M200,0l123,0l0,571l194,0l0,103l-509,0l0,-103l192,0z"
   id="glyph263" />
<glyph
   unicode="Τ"
   horiz-adv-x="525"
   d="M200,0l123,0l0,571l194,0l0,103l-509,0l0,-103l192,0z"
   id="glyph265" />
<glyph
   unicode="Ŧ"
   horiz-adv-x="525"
   d="M517,571l0,103l-509,0l0,-103l192,0l0,-192l-120,0l0,-76l120,0l0,-303l123,0l0,303l119,0l0,76l-119,0l0,192z"
   id="glyph267" />
<glyph
   unicode="Ť"
   horiz-adv-x="525"
   d="M200,0l123,0l0,571l194,0l0,103l-509,0l0,-103l192,0M309,710l101,119l-91,0l-55,-66l-2,0l-57,66l-92,0l103,-119z"
   id="glyph269" />
<glyph
   unicode="Ţ"
   horiz-adv-x="525"
   d="M200,0l123,0l0,571l194,0l0,103l-509,0l0,-103l192,0M186,-232C262,-229 332,-195 332,-116C332,-82 312,-54 292,-40l-87,-16C220,-70 236,-92 236,-116C236,-152 202,-172 167,-179z"
   id="glyph271" />
<glyph
   unicode="Θ"
   horiz-adv-x="706"
   d="M348,-11C533,-11 670,118 670,344C670,536 554,685 357,685C167,685 36,539 36,332C36,134 157,-11 347,-11M352,87C234,87 165,200 165,335C165,470 230,587 354,587C477,587 541,467 541,339C541,198 473,87 353,87M234,395l0,-100l237,0l0,100z"
   id="glyph273" />
<glyph
   unicode="Þ"
   horiz-adv-x="558"
   d="M71,0l121,0l0,143C209,141 234,138 264,138C409,138 523,205 523,360C523,416 501,465 462,499C419,536 360,553 281,553C241,553 215,551 192,548l0,126l-121,0M192,452C206,456 232,459 268,459C350,459 401,423 401,350C401,281 354,234 260,234C235,234 210,236 192,240z"
   id="glyph275" />
<glyph
   unicode="U"
   horiz-adv-x="666"
   d="M70,674l0,-386C70,76 171,-11 327,-11C489,-11 596,81 596,289l0,385l-123,0l0,-393C473,149 420,88 331,88C248,88 193,149 193,281l0,393z"
   id="glyph277" />
<glyph
   unicode="Ú"
   horiz-adv-x="666"
   d="M70,674l0,-386C70,76 171,-11 327,-11C489,-11 596,81 596,289l0,385l-123,0l0,-393C473,149 420,88 331,88C248,88 193,149 193,281l0,393M357,830l-88,-120l99,0l124,120z"
   id="glyph279" />
<glyph
   unicode="Ŭ"
   horiz-adv-x="666"
   d="M70,674l0,-386C70,76 171,-11 327,-11C489,-11 596,81 596,289l0,385l-123,0l0,-393C473,149 420,88 331,88C248,88 193,149 193,281l0,393M200,832C202,765 240,714 332,714C424,714 464,765 466,832l-66,0C395,807 378,784 333,784C288,784 272,809 268,832z"
   id="glyph281" />
<glyph
   unicode="Û"
   horiz-adv-x="666"
   d="M70,674l0,-386C70,76 171,-11 327,-11C489,-11 596,81 596,289l0,385l-123,0l0,-393C473,149 420,88 331,88C248,88 193,149 193,281l0,393M295,829l-101,-119l90,0l56,65l2,0l57,-65l92,0l-103,119z"
   id="glyph283" />
<glyph
   unicode="Ü"
   horiz-adv-x="666"
   d="M70,674l0,-386C70,76 171,-11 327,-11C489,-11 596,81 596,289l0,385l-123,0l0,-393C473,149 420,88 331,88C248,88 193,149 193,281l0,393M239,716C273,716 297,744 297,777C297,811 272,837 239,837C205,837 179,811 179,777C179,744 204,716 238,716M436,716C471,716 495,744 495,777C495,811 470,837 437,837C402,837 377,811 377,777C377,744 401,716 435,716z"
   id="glyph285" />
<glyph
   unicode="Ù"
   horiz-adv-x="666"
   d="M70,674l0,-386C70,76 171,-11 327,-11C489,-11 596,81 596,289l0,385l-123,0l0,-393C473,149 420,88 331,88C248,88 193,149 193,281l0,393M178,830l124,-119l99,0l-88,119z"
   id="glyph287" />
<glyph
   unicode="Ư"
   horiz-adv-x="705"
   d="M603,775C615,755 622,733 622,713C622,687 610,674 572,674l-99,0l0,-393C473,149 420,88 331,88C248,88 193,149 193,281l0,393l-123,0l0,-386C70,76 171,-11 327,-11C489,-11 596,81 596,289l0,317l16,1C680,612 712,650 712,705C712,737 704,766 692,790z"
   id="glyph289" />
<glyph
   unicode="Ű"
   horiz-adv-x="666"
   d="M70,674l0,-386C70,76 171,-11 327,-11C489,-11 596,81 596,289l0,385l-123,0l0,-393C473,149 420,88 331,88C248,88 193,149 193,281l0,393M269,831l-72,-114l87,0l106,114M435,831l-72,-114l87,0l106,114z"
   id="glyph291" />
<glyph
   unicode="Ū"
   horiz-adv-x="666"
   d="M70,674l0,-386C70,76 171,-11 327,-11C489,-11 596,81 596,289l0,385l-123,0l0,-393C473,149 420,88 331,88C248,88 193,149 193,281l0,393M208,803l0,-69l251,0l0,69z"
   id="glyph293" />
<glyph
   unicode="Ų"
   horiz-adv-x="666"
   d="M436,-124C422,-130 407,-133 392,-133C368,-133 349,-120 349,-94C349,-61 381,-24 407,0C523,25 596,118 596,289l0,385l-123,0l0,-393C473,149 420,88 331,88C248,88 193,149 193,281l0,393l-123,0l0,-386C70,82 166,-5 311,-10C313,-10 316,-10 318,-10C292,-37 260,-79 260,-127C260,-179 295,-212 357,-212C391,-212 428,-201 454,-183z"
   id="glyph295" />
<glyph
   unicode="Υ"
   horiz-adv-x="609"
   d="M9,579C115,558 194,452 227,293C235,249 239,209 239,159l0,-159l123,0l0,158C362,207 369,253 380,296C418,446 517,550 603,577l-20,103C535,676 466,640 416,585C369,533 325,456 311,359l-5,0C295,456 260,535 211,590C159,648 82,678 29,680z"
   id="glyph297" />
<glyph
   unicode="Ϋ"
   horiz-adv-x="609"
   d="M211,697C245,697 269,725 269,757C269,792 244,817 211,817C177,817 151,791 151,757C151,725 176,697 210,697M406,697C441,697 465,725 465,757C465,792 440,817 407,817C372,817 347,791 347,757C347,725 371,697 405,697M9,579C115,558 194,452 227,293C235,249 239,209 239,159l0,-159l123,0l0,158C362,207 369,253 380,296C418,446 517,550 603,577l-20,103C535,676 466,640 416,585C369,533 325,456 311,359l-5,0C295,456 260,535 211,590C159,648 82,678 29,680z"
   id="glyph299" />
<glyph
   unicode="Ύ"
   horiz-adv-x="746"
   d="M145,579C251,558 330,452 363,293C371,249 375,209 375,159l0,-159l123,0l0,158C498,207 505,253 516,296C554,446 653,550 739,577l-20,103C671,676 602,640 552,585C505,533 461,456 447,359l-6,0C431,456 396,535 347,590C295,648 218,678 165,680M5,674l-5,-165l71,0l36,165z"
   id="glyph301" />
<glyph
   unicode="Ů"
   horiz-adv-x="666"
   d="M70,674l0,-386C70,76 171,-11 327,-11C489,-11 596,81 596,289l0,385l-123,0l0,-393C473,149 420,88 331,88C248,88 193,149 193,281l0,393M333,880C264,880 225,837 225,784C225,733 266,692 333,692C399,692 441,733 441,785C441,838 403,880 334,880M332,836C361,836 378,812 378,786C378,758 361,736 332,736C304,736 286,760 286,784C286,811 302,836 331,836z"
   id="glyph303" />
<glyph
   unicode="Ũ"
   horiz-adv-x="666"
   d="M70,674l0,-386C70,76 171,-11 327,-11C489,-11 596,81 596,289l0,385l-123,0l0,-393C473,149 420,88 331,88C248,88 193,149 193,281l0,393M260,715C262,743 271,758 285,758C299,758 311,750 329,740C349,729 368,721 393,721C442,721 468,756 466,833l-58,0C405,801 397,792 381,792C367,792 351,801 335,811C315,822 298,831 273,831C227,831 198,789 200,715z"
   id="glyph305" />
<glyph
   unicode="V"
   horiz-adv-x="601"
   d="M366,0l233,674l-131,0l-98,-308C343,284 319,202 301,122l-2,0C281,204 259,283 233,368l-92,306l-134,0l218,-674z"
   id="glyph307" />
<glyph
   unicode="W"
   horiz-adv-x="869"
   d="M313,0l78,317C411,394 424,459 436,531l2,0C446,458 458,394 475,317l70,-317l132,0l181,674l-125,0l-70,-305C645,287 629,210 617,136l-2,0C605,209 591,284 574,364l-67,310l-129,0l-73,-305C286,284 267,204 256,133l-2,0C243,200 227,286 210,368l-64,306l-131,0l165,-674z"
   id="glyph309" />
<glyph
   unicode="Ẃ"
   horiz-adv-x="869"
   d="M313,0l78,317C411,394 424,459 436,531l2,0C446,458 458,394 475,317l70,-317l132,0l181,674l-125,0l-70,-305C645,287 629,210 617,136l-2,0C605,209 591,284 574,364l-67,310l-129,0l-73,-305C286,284 267,204 256,133l-2,0C243,200 227,286 210,368l-64,306l-131,0l165,-674M472,830l-88,-120l99,0l124,120z"
   id="glyph311" />
<glyph
   unicode="Ŵ"
   horiz-adv-x="869"
   d="M313,0l78,317C411,394 424,459 436,531l2,0C446,458 458,394 475,317l70,-317l132,0l181,674l-125,0l-70,-305C645,287 629,210 617,136l-2,0C605,209 591,284 574,364l-67,310l-129,0l-73,-305C286,284 267,204 256,133l-2,0C243,200 227,286 210,368l-64,306l-131,0l165,-674M391,829l-101,-119l90,0l56,65l2,0l57,-65l92,0l-103,119z"
   id="glyph313" />
<glyph
   unicode="Ẅ"
   horiz-adv-x="869"
   d="M313,0l78,317C411,394 424,459 436,531l2,0C446,458 458,394 475,317l70,-317l132,0l181,674l-125,0l-70,-305C645,287 629,210 617,136l-2,0C605,209 591,284 574,364l-67,310l-129,0l-73,-305C286,284 267,204 256,133l-2,0C243,200 227,286 210,368l-64,306l-131,0l165,-674M343,716C377,716 401,744 401,777C401,811 376,837 343,837C309,837 283,811 283,777C283,744 308,716 342,716M540,716C575,716 599,744 599,777C599,811 574,837 541,837C506,837 481,811 481,777C481,744 505,716 539,716z"
   id="glyph315" />
<glyph
   unicode="Ẁ"
   horiz-adv-x="869"
   d="M313,0l78,317C411,394 424,459 436,531l2,0C446,458 458,394 475,317l70,-317l132,0l181,674l-125,0l-70,-305C645,287 629,210 617,136l-2,0C605,209 591,284 574,364l-67,310l-129,0l-73,-305C286,284 267,204 256,133l-2,0C243,200 227,286 210,368l-64,306l-131,0l165,-674M274,830l124,-119l99,0l-88,119z"
   id="glyph317" />
<glyph
   unicode="X"
   horiz-adv-x="594"
   d="M574,0l-205,345l197,329l-141,0l-72,-139C332,494 318,464 300,422l-2,0C280,460 264,493 242,535l-73,139l-141,0l192,-333l-200,-341l141,0l67,134C255,186 273,222 289,261l3,0C311,222 330,186 359,134l73,-134z"
   id="glyph319" />
<glyph
   unicode="Ξ"
   horiz-adv-x="559"
   d="M55,674l0,-100l456,0l0,100M87,397l0,-100l391,0l0,100M43,101l0,-101l480,0l0,101z"
   id="glyph321" />
<glyph
   unicode="Y"
   horiz-adv-x="575"
   d="M347,0l0,284l224,390l-139,0l-81,-173C328,452 309,410 292,367l-2,0C272,413 255,451 232,501l-81,173l-140,0l213,-393l0,-281z"
   id="glyph323" />
<glyph
   unicode="Ý"
   horiz-adv-x="575"
   d="M347,0l0,284l224,390l-139,0l-81,-173C328,452 309,410 292,367l-2,0C272,413 255,451 232,501l-81,173l-140,0l213,-393l0,-281M320,827l-88,-120l99,0l124,120z"
   id="glyph325" />
<glyph
   unicode="Ŷ"
   horiz-adv-x="575"
   d="M347,0l0,284l224,390l-139,0l-81,-173C328,452 309,410 292,367l-2,0C272,413 255,451 232,501l-81,173l-140,0l213,-393l0,-281M241,829l-101,-119l90,0l56,65l2,0l57,-65l92,0l-103,119z"
   id="glyph327" />
<glyph
   unicode="Ÿ"
   horiz-adv-x="575"
   d="M347,0l0,284l224,390l-139,0l-81,-173C328,452 309,410 292,367l-2,0C272,413 255,451 232,501l-81,173l-140,0l213,-393l0,-281M198,712C232,712 256,740 256,773C256,807 231,833 198,833C164,833 138,807 138,773C138,740 163,712 197,712M395,712C430,712 454,740 454,773C454,807 429,833 396,833C361,833 336,807 336,773C336,740 360,712 394,712z"
   id="glyph329" />
<glyph
   unicode="Ỳ"
   horiz-adv-x="575"
   d="M347,0l0,284l224,390l-139,0l-81,-173C328,452 309,410 292,367l-2,0C272,413 255,451 232,501l-81,173l-140,0l213,-393l0,-281M136,826l124,-119l99,0l-88,119z"
   id="glyph331" />
<glyph
   unicode="Z"
   horiz-adv-x="566"
   d="M26,0l510,0l0,102l-345,0l0,4l340,496l0,72l-474,0l0,-102l314,0l0,-3l-345,-501z"
   id="glyph333" />
<glyph
   unicode="Ź"
   horiz-adv-x="566"
   d="M26,0l510,0l0,102l-345,0l0,4l340,496l0,72l-474,0l0,-102l314,0l0,-3l-345,-501M311,830l-88,-120l99,0l124,120z"
   id="glyph335" />
<glyph
   unicode="Ž"
   horiz-adv-x="566"
   d="M26,0l510,0l0,102l-345,0l0,4l340,496l0,72l-474,0l0,-102l314,0l0,-3l-345,-501M338,710l101,119l-91,0l-55,-66l-2,0l-57,66l-92,0l103,-119z"
   id="glyph337" />
<glyph
   unicode="Ż"
   horiz-adv-x="566"
   d="M26,0l510,0l0,102l-345,0l0,4l340,496l0,72l-474,0l0,-102l314,0l0,-3l-345,-501M287,716C321,716 346,744 346,776C346,809 321,836 288,836C253,836 226,809 226,776C226,744 253,716 286,716z"
   id="glyph339" />
<glyph
   unicode="Ζ"
   horiz-adv-x="566"
   d="M26,0l510,0l0,102l-345,0l0,4l340,496l0,72l-474,0l0,-102l314,0l0,-3l-345,-501z"
   id="glyph341" />
<glyph
   unicode="a"
   horiz-adv-x="508"
   d="M444,293C444,399 399,498 243,498C166,498 103,477 67,455l24,-80C124,396 174,411 222,411C308,411 321,358 321,326l0,-8C141,319 32,257 32,134C32,60 87,-11 185,-11C248,-11 299,16 329,54l3,0l8,-54l111,0C446,30 444,73 444,117M324,171C324,163 323,153 320,144C309,109 273,77 224,77C185,77 154,99 154,147C154,221 237,240 324,238z"
   id="glyph343" />
<glyph
   unicode="á"
   horiz-adv-x="508"
   d="M279,698l-87,-148l85,0l123,148M444,293C444,399 399,498 243,498C166,498 103,477 67,455l24,-80C124,396 174,411 222,411C308,411 321,358 321,326l0,-8C141,319 32,257 32,134C32,60 87,-11 185,-11C248,-11 299,16 329,54l3,0l8,-54l111,0C446,30 444,73 444,117M324,171C324,163 323,153 320,144C309,109 273,77 224,77C185,77 154,99 154,147C154,221 237,240 324,238z"
   id="glyph345" />
<glyph
   unicode="ă"
   horiz-adv-x="508"
   d="M122,688C122,616 163,553 254,553C337,553 386,608 386,688l-67,0C317,655 297,623 253,623C216,623 194,651 189,688M444,293C444,399 399,498 243,498C166,498 103,477 67,455l24,-80C124,396 174,411 222,411C308,411 321,358 321,326l0,-8C141,319 32,257 32,134C32,60 87,-11 185,-11C248,-11 299,16 329,54l3,0l8,-54l111,0C446,30 444,73 444,117M324,171C324,163 323,153 320,144C309,109 273,77 224,77C185,77 154,99 154,147C154,221 237,240 324,238z"
   id="glyph347" />
<glyph
   unicode="â"
   horiz-adv-x="508"
   d="M208,698l-97,-148l84,0l54,91l2,0l54,-91l84,0l-97,148M444,293C444,399 399,498 243,498C166,498 103,477 67,455l24,-80C124,396 174,411 222,411C308,411 321,358 321,326l0,-8C141,319 32,257 32,134C32,60 87,-11 185,-11C248,-11 299,16 329,54l3,0l8,-54l111,0C446,30 444,73 444,117M324,171C324,163 323,153 320,144C309,109 273,77 224,77C185,77 154,99 154,147C154,221 237,240 324,238z"
   id="glyph349" />
<glyph
   unicode="´"
   horiz-adv-x="300"
   d="M174,698l-87,-148l85,0l123,148z"
   id="glyph351" />
<glyph
   unicode=""
   horiz-adv-x="300"
   d="M177,830l-88,-120l99,0l124,120z"
   id="glyph353" />
<glyph
   unicode="ä"
   horiz-adv-x="508"
   d="M155,563C190,563 215,591 215,624C215,660 189,686 156,686C120,686 93,659 93,624C93,591 119,563 154,563M354,563C389,563 414,591 414,624C414,660 389,686 354,686C319,686 293,659 293,624C293,591 318,563 353,563M444,293C444,399 399,498 243,498C166,498 103,477 67,455l24,-80C124,396 174,411 222,411C308,411 321,358 321,326l0,-8C141,319 32,257 32,134C32,60 87,-11 185,-11C248,-11 299,16 329,54l3,0l8,-54l111,0C446,30 444,73 444,117M324,171C324,163 323,153 320,144C309,109 273,77 224,77C185,77 154,99 154,147C154,221 237,240 324,238z"
   id="glyph355" />
<glyph
   unicode="æ"
   horiz-adv-x="790"
   d="M754,216C755,227 757,246 757,264C757,365 705,498 559,498C485,498 427,464 391,408l-2,0C364,464 312,498 230,498C168,498 106,476 67,453l26,-79C122,393 172,411 220,411C307,411 322,348 322,330l0,-17C143,314 32,251 32,135C32,58 89,-11 193,-11C277,-11 340,26 374,85l3,0C408,23 481,-11 563,-11C624,-11 686,0 733,24l-19,84C681,94 643,82 580,82C496,82 437,131 437,216M325,175C325,163 324,152 321,143C308,108 275,77 225,77C186,77 153,101 153,145C153,218 239,237 325,235M437,301C438,346 471,415 545,415C623,415 643,340 642,301z"
   id="glyph357" />
<glyph
   unicode="ǽ"
   horiz-adv-x="790"
   d="M421,698l-87,-148l85,0l123,148M754,216C755,227 757,246 757,264C757,365 705,498 559,498C485,498 427,464 391,408l-2,0C364,464 312,498 230,498C168,498 106,476 67,453l26,-79C122,393 172,411 220,411C307,411 322,348 322,330l0,-17C143,314 32,251 32,135C32,58 89,-11 193,-11C277,-11 340,26 374,85l3,0C408,23 481,-11 563,-11C624,-11 686,0 733,24l-19,84C681,94 643,82 580,82C496,82 437,131 437,216M325,175C325,163 324,152 321,143C308,108 275,77 225,77C186,77 153,101 153,145C153,218 239,237 325,235M437,301C438,346 471,415 545,415C623,415 643,340 642,301z"
   id="glyph359" />
<glyph
   unicode="А"
   horiz-adv-x="636"
   d="M420,191l61,-191l132,0l-219,674l-157,0l-216,-674l127,0l58,191M226,284l52,166C290,490 300,537 310,576l2,0C322,537 333,491 346,450l53,-166z"
   id="glyph361" />
<glyph
   unicode="Б"
   horiz-adv-x="578"
   d="M71,674l0,-672C102,-2 153,-7 222,-7C320,-7 419,14 480,70C517,105 540,155 540,219C540,295 507,349 458,382C409,417 342,433 276,433C251,433 216,431 193,428l0,145l294,0l0,101M193,336C213,338 235,340 254,340C295,340 336,331 366,308C394,289 411,259 411,217C411,180 398,150 376,129C348,101 303,87 258,87C233,87 211,88 193,91z"
   id="glyph363" />
<glyph
   unicode="В"
   horiz-adv-x="576"
   d="M71,2C102,-2 154,-7 222,-7C345,-7 424,14 472,56C511,88 537,135 537,195C537,288 472,344 401,362l0,2C474,391 513,448 513,510C513,567 485,611 443,636C397,668 341,679 250,679C181,679 110,673 71,665M193,583C206,586 227,588 263,588C341,588 389,559 389,496C389,439 341,399 256,399l-63,0M193,309l61,0C339,309 407,277 407,199C407,116 337,86 258,86C230,86 209,86 193,89z"
   id="glyph365" />
<glyph
   unicode="Г"
   horiz-adv-x="464"
   d="M71,674l0,-674l123,0l0,573l262,0l0,101z"
   id="glyph367" />
<glyph
   unicode="Д"
   horiz-adv-x="662"
   d="M160,674l0,-176C160,401 152,319 131,247C116,194 92,145 66,98l-54,-3l6,-262l94,0l7,167l409,0l7,-167l94,0l7,262l-64,3l0,576M274,573l175,0l0,-472l-257,0C210,134 229,177 242,221C264,292 274,375 274,467z"
   id="glyph369" />
<glyph
   unicode="Е"
   horiz-adv-x="515"
   d="M448,399l-254,0l0,174l269,0l0,101l-392,0l0,-674l407,0l0,101l-284,0l0,198l254,0z"
   id="glyph371" />
<glyph
   unicode="Ё"
   horiz-adv-x="515"
   d="M448,399l-254,0l0,174l269,0l0,101l-392,0l0,-674l407,0l0,101l-284,0l0,198l254,0M166,716C200,716 224,744 224,777C224,811 199,837 166,837C132,837 106,811 106,777C106,744 131,716 165,716M363,716C398,716 422,744 422,777C422,811 397,837 364,837C329,837 304,811 304,777C304,744 328,716 362,716z"
   id="glyph373" />
<glyph
   unicode="Ж"
   horiz-adv-x="842"
   d="M12,674l234,-305C149,354 106,289 75,198C53,134 35,64 6,0l125,0C152,45 166,105 181,153C208,234 240,294 334,294l27,0l0,-294l119,0l0,294l26,0C600,294 633,234 659,153C674,105 688,45 710,0l125,0C806,64 790,134 767,201C736,292 693,359 595,369l234,305l-143,0l-186,-289l-20,0l0,289l-119,0l0,-289l-19,0l-186,289z"
   id="glyph375" />
<glyph
   unicode="З"
   horiz-adv-x="520"
   d="M75,544C113,564 168,585 220,585C288,585 331,552 331,497C331,436 271,395 193,395l-53,0l0,-92l53,0C267,303 353,281 353,195C353,131 303,89 215,89C156,89 91,112 58,130l-29,-95C84,3 154,-11 220,-11C345,-11 483,43 483,189C483,282 411,342 322,352l0,2C401,373 459,432 459,516C459,617 375,685 241,685C156,685 92,661 45,632z"
   id="glyph377" />
<glyph
   unicode="И"
   horiz-adv-x="675"
   d="M71,674l0,-674l137,0l170,285C421,357 466,441 498,518l2,0C492,431 491,345 491,239l0,-239l114,0l0,674l-125,0l-178,-302C258,296 214,215 179,139l-2,1C182,230 185,329 185,436l0,238z"
   id="glyph379" />
<glyph
   unicode="Й"
   horiz-adv-x="675"
   d="M71,674l0,-674l137,0l170,285C421,357 466,441 498,518l2,0C492,431 491,345 491,239l0,-239l114,0l0,674l-125,0l-178,-302C258,296 214,215 179,139l-2,1C182,230 185,329 185,436l0,238M199,822C205,746 250,706 335,706C422,706 472,745 477,822l-86,0C387,786 375,761 338,761C299,761 288,787 286,822z"
   id="glyph381" />
<glyph
   unicode="К"
   horiz-adv-x="577"
   d="M71,674l0,-674l121,0l0,294l29,0C317,294 353,235 380,153C397,102 413,46 436,0l132,0C538,64 517,132 492,203C462,288 421,352 323,370l244,304l-149,0l-206,-289l-20,0l0,289z"
   id="glyph383" />
<glyph
   unicode="Л"
   horiz-adv-x="622"
   d="M123,674l0,-290C123,279 116,173 69,125C52,109 25,94 -5,89l15,-98C57,-9 101,5 130,23C229,85 244,231 244,393l0,180l184,0l0,-573l123,0l0,674z"
   id="glyph385" />
<glyph
   unicode="М"
   horiz-adv-x="827"
   d="M653,0l120,0l-39,674l-160,0l-93,-270C455,325 432,242 414,169l-3,0C394,244 373,324 349,403l-88,271l-162,0l-45,-674l115,0l15,271C189,363 193,470 196,559l2,0C216,474 240,382 266,296l90,-288l95,0l98,292C579,385 607,476 629,559l3,0C631,467 636,362 640,275z"
   id="glyph387" />
<glyph
   unicode="Н"
   horiz-adv-x="672"
   d="M71,674l0,-674l123,0l0,297l285,0l0,-297l123,0l0,674l-123,0l0,-270l-285,0l0,270z"
   id="glyph389" />
<glyph
   unicode="О"
   horiz-adv-x="704"
   d="M356,685C166,685 36,539 36,332C36,134 156,-11 346,-11C532,-11 669,118 669,344C669,536 553,685 356,685M353,587C476,587 539,466 539,339C539,198 472,87 353,87C235,87 166,197 166,334C166,473 231,587 353,587z"
   id="glyph391" />
<glyph
   unicode="П"
   horiz-adv-x="660"
   d="M71,674l0,-674l123,0l0,573l272,0l0,-573l123,0l0,674z"
   id="glyph393" />
<glyph
   unicode="Р"
   horiz-adv-x="559"
   d="M71,0l122,0l0,254C209,251 230,250 253,250C340,250 417,273 466,322C504,358 524,411 524,475C524,538 498,591 458,624C415,660 349,679 259,679C176,679 115,673 71,665M193,579C206,582 230,585 264,585C349,585 401,545 401,470C401,391 345,346 253,346C228,346 208,347 193,351z"
   id="glyph395" />
<glyph
   unicode="С"
   horiz-adv-x="588"
   d="M534,117C502,102 450,92 400,92C252,92 165,187 165,335C165,497 264,583 401,583C457,583 501,571 533,557l27,98C535,668 477,685 396,685C190,685 36,551 36,329C36,124 166,-11 380,-11C461,-11 525,5 554,20z"
   id="glyph397" />
<glyph
   unicode="Т"
   horiz-adv-x="525"
   d="M200,0l123,0l0,571l194,0l0,103l-509,0l0,-103l192,0z"
   id="glyph399" />
<glyph
   unicode="У"
   horiz-adv-x="558"
   d="M3,675l225,-463C235,199 237,190 231,176C214,138 178,90 121,90C102,90 89,92 79,94l-10,-99C85,-10 103,-14 132,-14C203,-14 256,17 300,72C348,135 391,237 430,335l133,340l-130,0l-88,-261C329,361 317,318 307,287l-3,0C288,327 274,367 256,411l-114,264z"
   id="glyph401" />
<glyph
   unicode="Ф"
   horiz-adv-x="760"
   d="M323,702l0,-60C193,633 36,550 36,334C36,124 177,44 321,34l0,-62l116,0l0,62C584,46 725,128 725,338C725,549 582,633 439,642l0,60M322,121C244,129 160,192 160,337C160,494 250,550 322,557M438,557C517,550 600,494 600,338C600,185 514,128 438,121z"
   id="glyph403" />
<glyph
   unicode="Х"
   horiz-adv-x="594"
   d="M574,0l-205,345l197,329l-141,0l-72,-139C332,494 318,464 300,422l-2,0C280,460 264,493 242,535l-73,139l-141,0l192,-333l-200,-341l141,0l67,134C255,186 273,222 289,261l3,0C311,222 330,186 359,134l73,-134z"
   id="glyph405" />
<glyph
   unicode="Ц"
   horiz-adv-x="675"
   d="M71,674l0,-674l470,0l7,-167l95,0l7,262l-64,3l0,576l-123,0l0,-573l-269,0l0,573z"
   id="glyph407" />
<glyph
   unicode="Ч"
   horiz-adv-x="622"
   d="M65,674l0,-227C65,293 163,240 270,240C328,240 378,253 426,278l3,0l0,-285l122,0l0,681l-123,0l0,-303C397,352 354,339 314,339C232,339 188,383 188,467l0,207z"
   id="glyph409" />
<glyph
   unicode="Ш"
   horiz-adv-x="884"
   d="M71,674l0,-674l742,0l0,674l-121,0l0,-573l-190,0l0,573l-121,0l0,-573l-190,0l0,573z"
   id="glyph411" />
<glyph
   unicode="Щ"
   horiz-adv-x="903"
   d="M71,674l0,-674l698,0l7,-167l94,0l7,262l-64,3l0,576l-121,0l0,-573l-190,0l0,573l-121,0l0,-573l-190,0l0,573z"
   id="glyph413" />
<glyph
   unicode="Ъ"
   horiz-adv-x="672"
   d="M5,674l0,-101l172,0l0,-571C209,-2 261,-7 328,-7C426,-7 521,14 582,76C615,111 635,158 635,222C635,368 512,437 381,437C352,437 319,435 300,432l0,242M299,337C318,340 340,341 361,341C436,341 506,305 506,217C506,131 443,87 361,87C335,87 316,88 299,91z"
   id="glyph415" />
<glyph
   unicode="Ы"
   horiz-adv-x="805"
   d="M71,674l0,-672C102,-2 154,-7 221,-7C316,-7 421,14 481,76C514,111 534,158 534,220C534,371 409,437 271,437C247,437 213,435 193,431l0,243M193,337C206,339 228,341 253,341C326,341 405,306 405,217C405,130 333,87 253,87C228,87 208,88 193,91M602,674l0,-674l123,0l0,674z"
   id="glyph417" />
<glyph
   unicode="Ь"
   horiz-adv-x="577"
   d="M71,674l0,-672C102,-2 154,-7 223,-7C322,-7 427,14 487,76C520,111 540,158 540,222C540,372 417,437 276,437C250,437 214,435 193,432l0,242M193,337C213,340 235,341 257,341C340,341 411,306 411,216C411,128 340,87 256,87C231,87 211,88 193,91z"
   id="glyph419" />
<glyph
   unicode="Э"
   horiz-adv-x="578"
   d="M110,295l300,0C401,177 321,90 191,90C142,90 88,102 51,118l-23,-96C69,4 134,-11 203,-11C392,-11 543,112 543,336C543,527 439,685 213,685C144,685 82,666 37,646l26,-91C102,571 150,585 204,585C329,585 400,500 410,391l-300,0z"
   id="glyph421" />
<glyph
   unicode="Ю"
   horiz-adv-x="896"
   d="M71,674l0,-674l122,0l0,295l87,0C292,113 400,-11 565,-11C736,-11 862,116 862,344C862,536 757,685 574,685C416,685 306,572 283,398l-90,0l0,276M569,87C461,87 400,201 400,335C400,469 458,587 570,587C682,587 737,466 737,339C737,198 678,87 570,87z"
   id="glyph423" />
<glyph
   unicode="Я"
   horiz-adv-x="574"
   d="M142,0C153,20 159,35 165,53C187,113 205,204 249,248C270,268 297,277 332,277l50,0l0,-277l122,0l0,665C457,673 391,679 325,679C239,679 164,664 117,627C77,595 51,547 51,486C51,391 117,335 196,321l0,-3C175,311 155,299 140,284C87,232 70,146 42,69C33,44 23,20 11,0M382,369C366,367 342,367 318,367C237,367 174,406 174,477C174,557 236,586 310,586C345,586 369,582 382,579z"
   id="glyph425" />
<glyph
   unicode="Ґ"
   horiz-adv-x="471"
   d="M71,674l0,-674l123,0l0,573l263,0l11,227l-89,0l-16,-126z"
   id="glyph427" />
<glyph
   unicode="Ђ"
   horiz-adv-x="696"
   d="M8,674l0,-102l180,0l0,-572l123,0l0,319C334,336 366,350 403,350C445,350 475,333 498,300C519,270 530,224 530,165C530,95 512,42 486,11C460,-21 423,-38 388,-47l20,-99C448,-140 497,-122 539,-83C616,-34 659,60 659,175C659,249 642,318 604,369C567,418 515,450 440,450C391,450 343,434 314,416l-3,0l0,156l238,0l0,102z"
   id="glyph429" />
<glyph
   unicode="Ѓ"
   horiz-adv-x="464"
   d="M71,674l0,-674l123,0l0,573l262,0l0,101M278,830l-88,-120l99,0l124,120z"
   id="glyph431" />
<glyph
   unicode="Є"
   horiz-adv-x="587"
   d="M556,652C530,665 477,685 392,685C160,685 36,520 36,335C36,121 172,-11 380,-11C460,-11 522,6 553,22l-20,94C496,100 446,91 400,91C264,91 176,178 169,294l323,0l0,96l-324,0C183,498 262,585 397,585C451,585 499,572 530,557z"
   id="glyph433" />
<glyph
   unicode="Ѕ"
   horiz-adv-x="519"
   d="M41,32C78,10 152,-11 223,-11C397,-11 479,84 479,192C479,289 422,348 305,392C215,427 176,451 176,503C176,542 210,584 288,584C351,584 398,565 422,552l30,99C417,669 363,685 290,685C144,685 52,601 52,491C52,394 123,335 234,295C320,264 354,234 354,183C354,128 310,91 231,91C168,91 108,111 68,134z"
   id="glyph435" />
<glyph
   unicode="І"
   horiz-adv-x="264"
   d="M71,674l0,-674l123,0l0,674z"
   id="glyph437" />
<glyph
   unicode="Ї"
   horiz-adv-x="264"
   d="M71,674l0,-674l123,0l0,674M34,716C68,716 92,744 92,777C92,811 67,837 34,837C0,837 -26,811 -26,777C-26,744 -1,716 33,716M231,716C266,716 290,744 290,777C290,811 265,837 232,837C197,837 172,811 172,777C172,744 196,716 230,716z"
   id="glyph439" />
<glyph
   unicode="Ј"
   horiz-adv-x="392"
   d="M205,241C205,124 162,92 92,92C63,92 36,98 16,104l-15,-99C27,-5 70,-11 104,-11C238,-11 328,51 328,237l0,437l-123,0z"
   id="glyph441" />
<glyph
   unicode="Љ"
   horiz-adv-x="916"
   d="M124,674l0,-290C124,279 117,173 70,127C54,110 26,94 -5,89l17,-98C57,-9 101,5 131,23C229,85 244,231 244,393l0,180l170,0l0,-571C446,-2 496,-7 565,-7C663,-7 758,13 818,69C856,104 879,155 879,219C879,368 754,433 618,433C593,433 558,431 537,428l0,246M537,336C556,338 578,340 598,340C679,340 752,305 752,217C752,130 680,87 597,87C574,87 556,87 537,90z"
   id="glyph443" />
<glyph
   unicode="Њ"
   horiz-adv-x="928"
   d="M71,674l0,-674l123,0l0,312l232,0l0,-310C458,-2 508,-7 578,-7C677,-7 770,12 830,69C867,103 891,153 891,219C891,363 772,427 636,427C603,427 571,425 549,423l0,251l-123,0l0,-259l-232,0l0,259M548,331C566,333 586,335 613,335C693,335 763,301 763,215C763,128 693,87 610,87C587,87 568,88 548,91z"
   id="glyph445" />
<glyph
   unicode="Ћ"
   horiz-adv-x="705"
   d="M8,674l0,-102l178,0l0,-572l123,0l0,318C337,338 378,354 416,354C449,354 472,343 489,325C509,303 517,272 517,229l0,-229l123,0l0,245C640,313 623,367 588,404C559,435 517,454 459,454C404,454 348,433 312,411l-3,0l0,161l230,0l0,102z"
   id="glyph447" />
<glyph
   unicode="Ќ"
   horiz-adv-x="577"
   d="M71,674l0,-674l121,0l0,294l29,0C317,294 353,235 380,153C397,102 413,46 436,0l132,0C538,64 517,132 492,203C462,288 421,352 323,370l244,304l-149,0l-206,-289l-20,0l0,289M315,825l-88,-120l99,0l124,120z"
   id="glyph449" />
<glyph
   unicode="Ў"
   horiz-adv-x="558"
   d="M3,675l225,-463C235,199 237,190 231,176C214,138 178,90 121,90C102,90 89,92 79,94l-10,-99C85,-10 103,-14 132,-14C203,-14 256,17 300,72C348,135 391,237 430,335l133,340l-130,0l-88,-261C329,361 317,318 307,287l-3,0C288,327 274,367 256,411l-114,264M141,824C147,748 192,708 277,708C364,708 414,747 419,824l-86,0C329,788 317,763 280,763C241,763 230,789 228,824z"
   id="glyph451" />
<glyph
   unicode="а"
   horiz-adv-x="508"
   d="M444,293C444,399 399,498 243,498C166,498 103,477 67,455l24,-80C124,396 174,411 222,411C308,411 321,358 321,326l0,-8C141,319 32,257 32,134C32,60 87,-11 185,-11C248,-11 299,16 329,54l3,0l8,-54l111,0C446,30 444,73 444,117M324,171C324,163 323,153 320,144C309,109 273,77 224,77C185,77 154,99 154,147C154,221 237,240 324,238z"
   id="glyph453" />
<glyph
   unicode="б"
   horiz-adv-x="555"
   d="M470,720C436,710 379,703 336,697C244,684 177,655 130,596C67,528 38,431 38,312C38,137 110,-12 281,-12C424,-12 520,87 520,245C520,395 434,487 307,487C237,487 174,448 143,387l-4,0C143,432 162,489 192,526C227,570 280,592 355,602C389,606 437,613 463,622M394,239C394,161 364,78 281,78C198,78 165,177 165,249C165,289 174,321 191,348C208,378 238,400 279,400C367,400 394,311 394,240z"
   id="glyph455" />
<glyph
   unicode="в"
   horiz-adv-x="528"
   d="M65,1C94,-2 159,-6 220,-6C318,-6 494,7 494,141C494,209 444,249 372,260l0,2C424,273 472,308 472,370C472,482 324,493 242,493C175,493 101,487 65,481M185,410C204,412 220,414 244,414C317,414 351,393 351,354C351,308 299,290 236,290l-51,0M184,216l53,0C314,216 368,198 368,143C368,86 300,71 244,71C219,71 204,72 184,74z"
   id="glyph457" />
<glyph
   unicode="г"
   horiz-adv-x="402"
   d="M65,487l0,-487l123,0l0,390l199,0l0,97z"
   id="glyph459" />
<glyph
   unicode="д"
   horiz-adv-x="563"
   d="M126,487l0,-123C126,304 118,245 101,189C90,154 73,120 53,89l-44,-3l4,-242l94,0l6,156l320,0l5,-156l94,0l5,243l-52,2l0,398M233,395l133,0l0,-304l-190,0C191,117 204,147 212,178C226,225 233,277 233,329z"
   id="glyph461" />
<glyph
   unicode="е"
   horiz-adv-x="516"
   d="M479,209C481,220 483,238 483,261C483,368 432,498 273,498C117,498 35,371 35,236C35,87 128,-11 286,-11C356,-11 414,3 456,20l-18,85C401,91 360,83 303,83C225,83 156,121 153,209M153,295C158,345 190,414 266,414C348,414 368,340 367,295z"
   id="glyph463" />
<glyph
   unicode="ё"
   horiz-adv-x="516"
   d="M176,563C211,563 236,591 236,624C236,660 210,686 177,686C141,686 114,659 114,624C114,591 140,563 175,563M375,563C410,563 435,591 435,624C435,660 410,686 375,686C340,686 314,659 314,624C314,591 339,563 374,563M479,209C481,220 483,238 483,261C483,368 432,498 273,498C117,498 35,371 35,236C35,87 128,-11 286,-11C356,-11 414,3 456,20l-18,85C401,91 360,83 303,83C225,83 156,121 153,209M153,295C158,345 190,414 266,414C348,414 368,340 367,295z"
   id="glyph465" />
<glyph
   unicode="ж"
   horiz-adv-x="706"
   d="M6,487l180,-215C123,262 84,214 58,145C40,95 23,43 2,0l120,0C138,27 150,64 166,111C191,177 225,203 280,203l14,0l0,-203l118,0l0,203l13,0C476,203 513,177 537,111C552,66 565,26 580,0l124,0C682,42 666,95 648,146C623,214 583,263 519,272l180,215l-138,0l-133,-203l-16,0l0,203l-118,0l0,-203l-17,0l-133,203z"
   id="glyph467" />
<glyph
   unicode="з"
   horiz-adv-x="462"
   d="M111,212l60,0C240,212 293,196 293,145C293,107 256,78 188,78C139,79 87,94 53,112l-28,-78C73,6 137,-10 201,-10C301,-10 428,25 428,138C428,210 364,249 299,256l0,2C350,270 406,305 406,368C406,465 306,497 224,497C161,497 95,482 42,449l26,-73C102,397 147,411 188,411C243,411 276,387 276,352C276,317 237,290 170,290l-59,0z"
   id="glyph469" />
<glyph
   unicode="и"
   horiz-adv-x="578"
   d="M65,487l0,-487l147,0C254,80 298,168 336,240C360,287 376,322 400,380l4,0C399,288 396,252 396,174l0,-174l117,0l0,487l-149,0l-120,-228C219,208 204,172 178,115l-3,0C179,183 182,235 182,312l0,175z"
   id="glyph471" />
<glyph
   unicode="й"
   horiz-adv-x="578"
   d="M65,487l0,-487l147,0C254,80 298,168 336,240C360,287 376,322 400,380l4,0C399,288 396,252 396,174l0,-174l117,0l0,487l-149,0l-120,-228C219,208 204,172 178,115l-3,0C179,183 182,235 182,312l0,175M151,686C155,608 194,553 285,553C367,553 420,599 426,686l-82,0C340,643 323,613 287,613C253,613 234,643 233,686z"
   id="glyph473" />
<glyph
   unicode="к"
   horiz-adv-x="507"
   d="M66,487l0,-487l123,0l0,202l16,0C269,202 306,170 332,104C350,57 364,21 377,0l128,0C483,42 465,96 450,132C417,210 376,263 309,273l194,214l-146,0l-150,-202l-18,0l0,202z"
   id="glyph475" />
<glyph
   unicode="л"
   horiz-adv-x="528"
   d="M93,487l0,-196C93,197 89,141 53,111C41,99 22,91 1,87l13,-96C72,-9 108,4 136,31C194,74 208,160 208,287l0,105l132,0l0,-392l124,0l0,487z"
   id="glyph477" />
<glyph
   unicode="м"
   horiz-adv-x="683"
   d="M43,0l111,0l10,209C167,256 169,322 170,382l4,0C186,336 204,266 218,220l71,-214l89,0l78,219C482,302 490,328 506,384l3,0C510,325 514,259 516,212l9,-212l115,0l-31,487l-155,0l-65,-191C373,246 352,183 342,148l-2,0C329,189 312,243 302,275l-69,212l-155,0z"
   id="glyph479" />
<glyph
   unicode="н"
   horiz-adv-x="564"
   d="M65,487l0,-487l123,0l0,205l188,0l0,-205l123,0l0,487l-123,0l0,-186l-188,0l0,186z"
   id="glyph481" />
<glyph
   unicode="о"
   horiz-adv-x="564"
   d="M287,498C140,498 35,400 35,240C35,84 141,-11 279,-11C403,-11 529,69 529,248C529,396 432,498 287,498M284,408C368,408 402,321 402,245C402,147 353,78 283,78C208,78 162,149 162,243C162,324 197,408 284,408z"
   id="glyph483" />
<glyph
   unicode="п"
   horiz-adv-x="560"
   d="M65,487l0,-487l123,0l0,392l183,0l0,-392l124,0l0,487z"
   id="glyph485" />
<glyph
   unicode="р"
   horiz-adv-x="585"
   d="M66,-198l123,0l0,252l2,0C216,15 267,-11 328,-11C439,-11 550,74 550,250C550,402 457,498 345,498C271,498 214,467 178,412l-2,0l-6,75l-108,0C64,441 66,389 66,325M189,279C189,289 191,300 194,310C206,364 253,401 304,401C383,401 425,331 425,245C425,149 379,84 301,84C249,84 205,120 193,170C190,181 189,192 189,204z"
   id="glyph487" />
<glyph
   unicode="с"
   horiz-adv-x="449"
   d="M407,106C383,96 353,87 310,87C226,87 161,144 161,244C160,333 216,402 310,402C354,402 383,392 403,383l22,92C397,488 351,498 306,498C135,498 35,384 35,238C35,87 134,-11 286,-11C347,-11 398,3 424,15z"
   id="glyph489" />
<glyph
   unicode="т"
   horiz-adv-x="438"
   d="M12,487l0,-95l146,0l0,-392l123,0l0,392l146,0l0,95z"
   id="glyph491" />
<glyph
   unicode="у"
   horiz-adv-x="500"
   d="M8,487l178,-447C192,28 193,21 193,16C193,10 190,3 185,-6C168,-39 141,-68 118,-83C93,-101 67,-112 46,-117l28,-104C105,-217 155,-201 203,-158C261,-108 306,-27 373,155l122,332l-132,0l-76,-260C278,195 269,159 261,131l-3,0C251,159 241,196 231,226l-88,261z"
   id="glyph493" />
<glyph
   unicode="ф"
   horiz-adv-x="684"
   d="M285,706l1,-211C149,483 35,400 35,240C35,86 148,0 286,-10l-1,-188l115,0l-1,189C534,1 649,84 649,243C649,397 539,483 399,496l1,210M286,72C203,87 157,155 157,243C157,329 202,399 286,414M398,414C482,398 528,331 528,244C528,156 482,88 398,72z"
   id="glyph495" />
<glyph
   unicode="х"
   horiz-adv-x="494"
   d="M11,487l163,-239l-169,-248l136,0l56,97C213,124 227,148 241,176l2,0C257,149 271,123 287,97l60,-97l139,0l-166,253l163,234l-134,0l-54,-90C281,372 267,347 253,320l-3,0C236,345 222,369 206,395l-58,92z"
   id="glyph497" />
<glyph
   unicode="ц"
   horiz-adv-x="572"
   d="M65,487l0,-487l377,0l5,-156l94,0l6,243l-53,2l0,398l-123,0l0,-392l-183,0l0,392z"
   id="glyph499" />
<glyph
   unicode="ч"
   horiz-adv-x="539"
   d="M60,487l0,-170C60,204 123,149 222,149C268,149 318,162 349,182l2,0l0,-189l123,0l0,494l-123,0l0,-223C331,249 299,238 268,238C204,238 183,272 183,329l0,158z"
   id="glyph501" />
<glyph
   unicode="ш"
   horiz-adv-x="779"
   d="M65,487l0,-487l649,0l0,487l-121,0l0,-392l-142,0l0,392l-122,0l0,-392l-142,0l0,392z"
   id="glyph503" />
<glyph
   unicode="щ"
   horiz-adv-x="792"
   d="M65,487l0,-487l597,0l5,-156l94,0l6,243l-53,2l0,398l-121,0l0,-392l-142,0l0,392l-122,0l0,-392l-142,0l0,392z"
   id="glyph505" />
<glyph
   unicode="ъ"
   horiz-adv-x="618"
   d="M17,487l0,-95l140,0l0,-390C202,-2 253,-5 306,-5C378,-5 467,5 525,49C561,76 585,114 585,169C585,298 468,339 362,339C331,339 303,337 280,334l0,153M280,249C297,251 313,254 333,254C392,254 462,237 462,165C462,100 399,79 338,79C311,79 295,81 280,83z"
   id="glyph507" />
<glyph
   unicode="ы"
   horiz-adv-x="727"
   d="M65,487l0,-485C109,-2 161,-5 213,-5C282,-5 364,6 422,50C458,76 482,115 482,172C482,294 373,339 266,339C234,339 207,336 188,333l0,154M187,249C203,251 221,254 245,254C300,254 359,233 359,168C359,102 298,79 240,79C219,79 202,80 187,82M539,487l0,-487l123,0l0,487z"
   id="glyph509" />
<glyph
   unicode="ь"
   horiz-adv-x="529"
   d="M65,487l0,-485C109,-2 161,-5 213,-5C286,-5 378,6 436,50C472,76 496,115 496,172C496,301 378,339 266,339C240,339 209,336 188,333l0,154M187,249C204,252 221,254 242,254C297,254 373,238 373,167C373,98 301,79 244,79C219,79 203,81 187,83z"
   id="glyph511" />
<glyph
   unicode="э"
   horiz-adv-x="475"
   d="M88,206l225,0C302,130 244,84 161,84C109,84 67,98 45,107l-20,-85C65,1 117,-11 171,-11C339,-11 440,95 440,243C440,327 411,391 366,434C321,477 257,498 189,498C136,498 76,485 32,461l24,-80C82,393 119,406 168,406C260,406 306,354 315,286l-227,0z"
   id="glyph513" />
<glyph
   unicode="ю"
   horiz-adv-x="741"
   d="M65,487l0,-487l122,0l0,204l70,0C270,70 359,-11 477,-11C600,-11 706,82 706,248C706,397 615,498 483,498C363,498 278,418 259,295l-72,0l0,192M478,78C408,78 374,156 374,242C374,327 408,408 480,408C551,408 583,327 583,245C583,158 550,78 479,78z"
   id="glyph515" />
<glyph
   unicode="я"
   horiz-adv-x="528"
   d="M463,483C420,489 358,494 290,494C225,494 160,485 118,463C75,441 43,406 43,350C43,274 112,236 170,230l0,-3C146,222 127,209 112,194C75,160 58,97 39,54C30,34 21,15 9,0l132,0C149,14 154,26 160,40C177,82 189,134 220,161C237,180 261,193 295,193l46,0l0,-193l122,0M341,271C325,270 309,270 280,270C232,270 171,292 171,343C171,397 226,416 280,416C307,416 324,414 341,411z"
   id="glyph517" />
<glyph
   unicode="ґ"
   horiz-adv-x="414"
   d="M65,487l0,-487l123,0l0,390l201,0l7,211l-86,0l-13,-114z"
   id="glyph519" />
<glyph
   unicode="ђ"
   horiz-adv-x="573"
   d="M4,634l0,-83l77,0l0,-551l123,0l0,297C204,318 208,332 218,344C238,369 269,389 303,389C337,389 364,368 381,340C404,298 412,243 412,191C412,99 390,28 359,-6C334,-33 309,-43 278,-49l23,-98C340,-143 383,-126 421,-98C494,-47 535,57 535,200C535,280 521,350 486,404C454,456 406,488 343,488C287,488 238,461 206,428l-2,0l0,123l218,0l0,83l-218,0l0,76l-123,0l0,-76z"
   id="glyph521" />
<glyph
   unicode="ѓ"
   horiz-adv-x="402"
   d="M65,487l0,-487l123,0l0,390l199,0l0,97M244,698l-87,-148l85,0l123,148z"
   id="glyph523" />
<glyph
   unicode="є"
   horiz-adv-x="467"
   d="M442,469C417,483 366,498 313,498C156,498 35,401 35,239C35,92 133,-11 296,-11C362,-11 416,5 442,19l-20,85C399,95 360,83 316,83C233,83 174,129 164,206l221,0l0,80l-222,0C173,355 225,407 314,407C360,407 396,394 418,383z"
   id="glyph525" />
<glyph
   unicode="ѕ"
   horiz-adv-x="417"
   d="M36,24C72,4 125,-11 184,-11C313,-11 382,54 382,142C381,214 340,259 252,291C190,313 167,328 167,359C167,389 191,410 235,410C278,410 317,394 338,382l24,87C334,484 287,498 233,498C120,498 49,431 49,345C48,288 88,236 183,203C243,182 263,165 263,132C263,100 239,78 185,78C141,78 88,96 60,113z"
   id="glyph527" />
<glyph
   unicode="і"
   horiz-adv-x="256"
   d="M190,0l0,487l-124,0l0,-487M128,690C87,690 59,661 59,623C59,586 86,557 127,557C170,557 197,586 197,623C196,661 170,690 128,690z"
   id="glyph529" />
<glyph
   unicode="ї"
   horiz-adv-x="256"
   d="M29,563C64,563 89,591 89,624C89,660 63,686 30,686C-6,686 -33,659 -33,624C-33,591 -7,563 28,563M228,563C263,563 288,591 288,624C288,660 263,686 228,686C193,686 167,659 167,624C167,591 192,563 227,563M190,0l0,487l-124,0l0,-487z"
   id="glyph531" />
<glyph
   unicode="ј"
   horiz-adv-x="270"
   d="M-30,-213C31,-213 99,-196 142,-156C186,-112 205,-49 205,52l0,435l-123,0l0,-400C82,-19 73,-58 50,-82C30,-104 -2,-114 -42,-117M144,690C102,690 75,661 75,623C75,587 101,557 142,557C186,557 212,587 212,623C212,661 186,690 144,690z"
   id="glyph533" />
<glyph
   unicode="љ"
   horiz-adv-x="802"
   d="M96,487l0,-196C96,201 90,139 53,110C41,99 22,91 1,87l13,-96C72,-9 108,5 135,31C193,74 210,160 210,287l0,105l131,0l0,-390C385,-2 440,-5 491,-5C562,-5 655,4 713,51C746,76 769,113 769,168C769,295 652,337 541,337C516,337 485,335 464,332l0,155M463,248C481,250 501,253 525,253C577,253 646,235 646,166C646,98 575,79 520,79C495,79 479,81 463,82z"
   id="glyph535" />
<glyph
   unicode="њ"
   horiz-adv-x="814"
   d="M65,487l0,-487l123,0l0,222l168,0l0,-220C400,-2 455,-5 506,-5C577,-5 666,3 725,49C757,75 780,112 780,167C780,290 664,334 558,334C531,334 500,332 479,329l0,158l-123,0l0,-172l-168,0l0,172M478,246C496,248 514,250 536,250C592,250 657,233 657,165C657,98 590,79 535,79C510,79 493,81 478,82z"
   id="glyph537" />
<glyph
   unicode="ћ"
   horiz-adv-x="586"
   d="M4,634l0,-83l77,0l0,-551l123,0l0,279C204,294 206,308 210,319C223,354 255,388 305,388C373,388 398,334 398,263l0,-263l123,0l0,278C521,414 456,488 351,488C320,488 290,480 265,466C242,453 222,435 206,412l-2,0l0,139l201,0l0,83l-201,0l0,76l-123,0l0,-76z"
   id="glyph539" />
<glyph
   unicode="ќ"
   horiz-adv-x="507"
   d="M66,487l0,-487l123,0l0,202l16,0C269,202 306,170 332,104C350,57 364,21 377,0l128,0C483,42 465,96 450,132C417,210 376,263 309,273l194,214l-146,0l-150,-202l-18,0l0,202M281,698l-87,-148l85,0l123,148z"
   id="glyph541" />
<glyph
   unicode="ў"
   horiz-adv-x="500"
   d="M112,686C116,608 155,553 246,553C328,553 381,599 387,686l-82,0C301,643 284,613 248,613C214,613 195,643 194,686M8,487l178,-447C192,28 193,21 193,16C193,10 190,3 185,-6C168,-39 141,-68 118,-83C93,-101 67,-112 46,-117l28,-104C105,-217 155,-201 203,-158C261,-108 306,-27 373,155l122,332l-132,0l-76,-260C278,195 269,159 261,131l-3,0C251,159 241,196 231,226l-88,261z"
   id="glyph543" />
<glyph
   unicode="Џ"
   horiz-adv-x="656"
   d="M71,674l0,-674l200,0l7,-180l102,0l7,180l200,0l0,674l-123,0l0,-573l-270,0l0,573z"
   id="glyph545" />
<glyph
   unicode="џ"
   horiz-adv-x="559"
   d="M65,487l0,-487l158,0l7,-161l99,0l7,161l158,0l0,487l-123,0l0,-392l-183,0l0,392z"
   id="glyph547" />
<glyph
   unicode="ә"
   horiz-adv-x="328"
   d="M77,381C119,395 159,405 214,405C298,405 359,366 362,277l-326,0C34,267 32,248 32,226C32,119 84,-11 243,-11C399,-11 480,117 480,250C480,400 387,498 231,498C160,498 102,483 59,464M362,191C357,142 328,74 251,74C169,74 147,147 148,191z"
   id="glyph549" />
<glyph
   unicode="ℓ"
   horiz-adv-x="532"
   d="M227,499C227,595 254,630 284,630C313,630 334,605 334,549C334,476 295,399 227,328M445,173C419,138 376,91 317,91C264,91 228,122 227,202l0,13C359,330 429,431 429,550C429,648 373,712 285,712C185,712 110,643 110,480l0,-240C84,219 55,199 28,180l33,-66C79,125 95,136 112,148C113,146 113,144 113,141C129,47 185,-11 287,-11C373,-11 450,27 503,118z"
   id="glyph551" />
<glyph
   unicode="№"
   horiz-adv-x="945"
   d="M751,638C654,638 582,571 582,460C582,350 654,287 749,287C837,287 917,340 917,465C917,568 854,638 752,638M749,574C799,574 820,516 820,463C820,398 795,351 750,351C710,351 679,398 679,461C679,513 701,574 748,574M890,182l0,64l-280,0l0,-64M176,0l0,224C176,336 174,424 170,507l3,0C201,434 233,354 267,285l139,-285l124,0l0,653l-107,0l0,-220C423,330 426,243 433,157l-1,-1C405,225 372,302 339,374l-136,279l-134,0l0,-653z"
   id="glyph553" />
<glyph
   unicode="à"
   horiz-adv-x="508"
   d="M98,698l122,-148l86,0l-87,148M444,293C444,399 399,498 243,498C166,498 103,477 67,455l24,-80C124,396 174,411 222,411C308,411 321,358 321,326l0,-8C141,319 32,257 32,134C32,60 87,-11 185,-11C248,-11 299,16 329,54l3,0l8,-54l111,0C446,30 444,73 444,117M324,171C324,163 323,153 320,144C309,109 273,77 224,77C185,77 154,99 154,147C154,221 237,240 324,238z"
   id="glyph555" />
<glyph
   unicode="α"
   horiz-adv-x="568"
   d="M410,487C406,466 402,443 399,413l-4,0C368,468 317,498 255,498C144,498 35,395 35,234C35,85 122,-11 236,-11C307,-11 364,25 397,84l3,0C409,18 445,-11 495,-11C511,-11 531,-8 538,-5l8,87C516,81 499,100 499,155C499,271 507,421 513,487M160,239C160,330 206,403 275,403C328,403 368,355 378,295C381,281 381,267 381,249C381,227 380,211 377,192C364,137 321,87 269,87C202,87 160,156 160,238z"
   id="glyph557" />
<glyph
   unicode="ά"
   horiz-adv-x="569"
   d="M286,694l-49,-148l81,0l82,148M410,487C406,466 402,443 399,413l-4,0C368,468 317,498 255,498C144,498 35,395 35,234C35,85 122,-11 236,-11C307,-11 364,25 397,84l3,0C409,18 445,-11 495,-11C511,-11 531,-8 538,-5l8,87C516,81 499,100 499,155C499,271 507,421 513,487M160,239C160,330 206,403 275,403C328,403 368,355 378,295C381,281 381,267 381,249C381,227 380,211 377,192C364,137 321,87 269,87C202,87 160,156 160,238z"
   id="glyph559" />
<glyph
   unicode="ā"
   horiz-adv-x="508"
   d="M135,655l0,-71l239,0l0,71M444,293C444,399 399,498 243,498C166,498 103,477 67,455l24,-80C124,396 174,411 222,411C308,411 321,358 321,326l0,-8C141,319 32,257 32,134C32,60 87,-11 185,-11C248,-11 299,16 329,54l3,0l8,-54l111,0C446,30 444,73 444,117M324,171C324,163 323,153 320,144C309,109 273,77 224,77C185,77 154,99 154,147C154,221 237,240 324,238z"
   id="glyph561" />
<glyph
   unicode="&amp;"
   horiz-adv-x="645"
   d="M641,0C599,44 562,85 525,126C581,190 612,275 630,379l-110,0C508,308 488,245 459,200C422,240 370,300 323,354l1,4C423,407 463,464 463,534C463,626 391,685 296,685C171,685 107,596 107,512C107,464 129,415 161,377l0,-3C84,333 31,269 31,179C31,82 105,-11 254,-11C331,-11 393,13 444,56C464,34 480,17 497,0M272,79C197,79 148,132 148,199C148,255 185,290 217,312C280,239 344,168 385,125C360,99 320,79 273,79M290,606C337,606 357,566 357,530C357,483 324,452 267,416C237,450 218,483 218,524C218,566 243,606 289,606z"
   id="glyph563" />
<glyph
   unicode="·"
   horiz-adv-x="250"
   d="M125,231C175,231 208,268 208,317C207,368 174,403 125,403C77,403 42,367 42,317C42,268 76,231 124,231z"
   id="glyph565" />
<glyph
   unicode="ą"
   horiz-adv-x="508"
   d="M444,293C444,399 399,498 243,498C166,498 103,477 67,455l24,-80C124,396 174,411 222,411C308,411 321,358 321,326l0,-8C141,319 32,257 32,134C32,60 87,-11 185,-11C248,-11 299,16 329,54l3,0l8,-52C326,-23 300,-68 300,-119C300,-180 341,-213 397,-213C429,-213 463,-205 492,-183l-18,60C461,-129 447,-133 429,-133C401,-133 381,-116 381,-82C381,-53 399,-19 411,0l41,0C446,29 444,71 444,117M324,171C324,163 323,153 320,144C309,109 273,77 224,77C185,77 154,99 154,147C154,221 237,240 324,238z"
   id="glyph567" />
<glyph
   unicode="≈"
   horiz-adv-x="596"
   d="M525,427C504,402 463,365 415,365C367,365 334,387 304,399C272,413 236,435 180,435C112,435 54,393 21,349l43,-53C90,325 131,357 179,357C227,357 260,336 290,323C323,309 360,287 416,287C481,287 540,327 573,376M530,221C507,192 466,159 417,159C370,159 337,181 307,193C274,207 238,229 181,229C117,229 57,189 24,144l43,-54C93,119 135,151 180,151C230,151 263,130 293,117C325,103 363,81 417,81C483,81 543,121 576,172z"
   id="glyph569" />
<glyph
   unicode="å"
   horiz-adv-x="508"
   d="M254,538C318,538 361,579 361,633C361,688 322,730 255,730C185,730 145,687 145,632C145,579 188,538 254,538M253,582C224,582 206,608 206,632C206,660 223,685 252,685C284,685 302,661 302,634C302,606 284,582 253,582M444,293C444,399 399,498 243,498C166,498 103,477 67,455l24,-80C124,396 174,411 222,411C308,411 321,358 321,326l0,-8C141,319 32,257 32,134C32,60 87,-11 185,-11C248,-11 299,16 329,54l3,0l8,-54l111,0C446,30 444,73 444,117M324,171C324,163 323,153 320,144C309,109 273,77 224,77C185,77 154,99 154,147C154,221 237,240 324,238z"
   id="glyph571" />
<glyph
   unicode="^"
   horiz-adv-x="596"
   d="M546,182l-209,468l-78,0l-209,-468l91,0l155,371l3,0l155,-371z"
   id="glyph573" />
<glyph
   unicode="~"
   horiz-adv-x="596"
   d="M125,200C128,263 148,284 177,284C207,284 238,265 284,241C345,210 382,194 426,194C496,194 556,238 551,366l-80,0C470,309 454,284 425,284C395,284 363,300 316,324C255,356 221,371 176,371C100,371 43,319 45,200z"
   id="glyph575" />
<glyph
   unicode="*"
   horiz-adv-x="437"
   d="M277,685l-58,-147l-3,0l-58,147l-76,-44l100,-124l-1,-3l-151,26l0,-86l153,25l0,-3l-101,-123l72,-45l61,148l2,1l59,-148l77,44l-103,122l0,3l157,-24l0,86l-156,-26l0,2l102,126z"
   id="glyph577" />
<glyph
   unicode="@"
   horiz-adv-x="755"
   d="M445,252C435,193 390,133 343,133C306,133 287,161 287,202C287,287 347,361 423,361C440,361 453,358 463,355M519,-16C479,-37 425,-49 371,-49C223,-49 115,50 115,217C115,414 250,538 408,538C563,538 648,436 648,298C648,183 593,122 546,124C516,124 507,155 519,222l32,183C525,418 481,428 437,428C295,428 201,316 201,193C201,113 250,65 312,65C368,65 413,92 446,147l3,0C451,90 486,65 530,65C631,65 714,155 714,303C714,470 593,592 417,592C193,592 47,415 47,210C47,15 190,-105 355,-105C424,-105 478,-95 536,-67z"
   id="glyph579" />
<glyph
   unicode=""
   horiz-adv-x="755"
   d="M445,345C435,286 390,226 343,226C306,226 287,254 287,295C287,380 347,454 423,454C440,454 453,451 463,448M519,77C479,56 425,44 371,44C223,44 115,143 115,310C115,507 250,631 408,631C563,631 648,529 648,391C648,276 593,215 546,217C516,217 507,248 519,315l32,183C525,511 481,521 437,521C295,521 201,409 201,286C201,206 250,158 312,158C368,158 413,185 446,240l3,0C451,183 486,158 530,158C631,158 714,248 714,396C714,563 593,685 417,685C193,685 47,508 47,303C47,108 190,-12 355,-12C424,-12 478,-2 536,26z"
   id="glyph581" />
<glyph
   unicode="ã"
   horiz-adv-x="508"
   d="M175,562C176,591 185,607 200,607C212,607 221,601 240,590C261,579 281,569 306,569C356,569 384,605 381,685l-59,0C319,651 311,642 295,642C283,642 269,651 253,660C232,671 213,681 189,681C142,681 111,638 113,562M444,293C444,399 399,498 243,498C166,498 103,477 67,455l24,-80C124,396 174,411 222,411C308,411 321,358 321,326l0,-8C141,319 32,257 32,134C32,60 87,-11 185,-11C248,-11 299,16 329,54l3,0l8,-54l111,0C446,30 444,73 444,117M324,171C324,163 323,153 320,144C309,109 273,77 224,77C185,77 154,99 154,147C154,221 237,240 324,238z"
   id="glyph583" />
<glyph
   unicode="b"
   horiz-adv-x="585"
   d="M66,137C66,87 64,33 62,0l105,0l6,73l2,0C210,13 266,-11 329,-11C439,-11 550,76 550,251C551,399 466,498 347,498C274,498 221,467 191,420l-2,0l0,290l-123,0M189,280C189,292 191,303 193,312C207,366 252,402 302,402C384,402 425,332 425,246C425,148 378,86 301,86C248,86 205,123 192,172C190,181 189,191 189,201z"
   id="glyph585" />
<glyph
   unicode="\"
   horiz-adv-x="335"
   d="M327,-40l-234,725l-86,0l234,-725z"
   id="glyph587" />
<glyph
   unicode="|"
   horiz-adv-x="263"
   d="M87,750l0,-1000l89,0l0,1000z"
   id="glyph589" />
<glyph
   unicode="β"
   horiz-adv-x="575"
   d="M185,41C222,6 269,-11 329,-11C442,-11 539,68 539,198C539,301 472,369 399,385l0,5C448,415 483,477 483,542C483,644 410,721 295,721C225,721 177,698 141,664C100,626 64,564 64,422l0,-449C64,-96 68,-168 81,-198l115,0C185,-157 183,-80 183,-21l0,62M183,442C183,570 221,625 286,625C337,625 372,584 372,523C372,467 339,417 278,410C272,408 267,408 261,408l0,-79C269,329 277,330 285,329C358,325 415,283 415,201C415,136 372,82 300,82C247,82 206,113 183,146z"
   id="glyph591" />
<glyph
   unicode="{"
   horiz-adv-x="301"
   d="M29,255C99,254 107,213 107,184C107,158 104,132 101,105C97,78 94,50 94,25C94,-76 156,-112 243,-112l29,0l0,71l-18,0C204,-40 184,-12 184,38C184,58 187,79 191,101C193,123 197,147 197,174C198,244 168,275 117,287l0,2C168,301 198,331 197,401C197,428 193,451 191,473C187,495 184,517 184,537C184,585 202,614 254,615l18,0l0,71l-29,0C154,686 94,646 94,553C94,527 97,499 101,472C104,444 107,417 107,391C107,359 99,321 29,320z"
   id="glyph593" />
<glyph
   unicode=""
   horiz-adv-x="301"
   d="M29,294C99,293 107,252 107,223C107,197 104,171 101,144C97,117 94,89 94,64C94,-37 156,-73 243,-73l29,0l0,71l-18,0C204,-1 184,27 184,77C184,97 187,118 191,140C193,162 197,186 197,213C198,283 168,314 117,326l0,2C168,340 198,370 197,440C197,467 193,490 191,512C187,534 184,556 184,576C184,624 202,653 254,654l18,0l0,71l-29,0C154,725 94,685 94,592C94,566 97,538 101,511C104,483 107,456 107,430C107,398 99,360 29,359z"
   id="glyph595" />
<glyph
   unicode="}"
   horiz-adv-x="301"
   d="M271,320C202,321 193,359 193,391C193,417 197,444 200,472C203,499 207,527 207,553C207,646 147,686 58,686l-29,0l0,-71l18,0C98,614 116,585 116,537C116,517 113,495 110,473C107,451 104,428 104,401C103,331 133,301 183,289l0,-2C133,275 103,244 104,174C104,147 107,123 110,101C113,79 116,58 116,38C116,-12 97,-40 47,-41l-18,0l0,-71l29,0C145,-112 207,-76 207,25C207,50 203,78 200,105C197,132 193,158 193,184C193,213 202,254 271,255z"
   id="glyph597" />
<glyph
   unicode=""
   horiz-adv-x="301"
   d="M271,359C202,360 193,398 193,430C193,456 197,483 200,511C203,538 207,566 207,592C207,685 147,725 58,725l-29,0l0,-71l18,0C98,653 116,624 116,576C116,556 113,534 110,512C107,490 104,467 104,440C103,370 133,340 183,328l0,-2C133,314 103,283 104,213C104,186 107,162 110,140C113,118 116,97 116,77C116,27 97,-1 47,-2l-18,0l0,-71l29,0C145,-73 207,-37 207,64C207,89 203,117 200,144C197,171 193,197 193,223C193,252 202,293 271,294z"
   id="glyph599" />
<glyph
   unicode="["
   horiz-adv-x="301"
   d="M269,-112l0,71l-104,0l0,656l104,0l0,71l-195,0l0,-798z"
   id="glyph601" />
<glyph
   unicode=""
   horiz-adv-x="301"
   d="M269,-73l0,71l-104,0l0,656l104,0l0,71l-195,0l0,-798z"
   id="glyph603" />
<glyph
   unicode="]"
   horiz-adv-x="301"
   d="M32,686l0,-71l103,0l0,-656l-103,0l0,-71l194,0l0,798z"
   id="glyph605" />
<glyph
   unicode=""
   horiz-adv-x="301"
   d="M32,725l0,-71l103,0l0,-656l-103,0l0,-71l194,0l0,798z"
   id="glyph607" />
<glyph
   unicode="˘"
   horiz-adv-x="300"
   d="M18,688C18,616 59,553 150,553C233,553 282,608 282,688l-67,0C213,655 193,623 149,623C112,623 90,651 85,688z"
   id="glyph609" />
<glyph
   unicode=""
   horiz-adv-x="300"
   d="M17,841C19,774 57,723 149,723C241,723 281,774 283,841l-66,0C212,816 195,793 150,793C105,793 89,818 85,841z"
   id="glyph611" />
<glyph
   unicode=""
   horiz-adv-x="300"
   d="M13,686C17,608 56,553 147,553C229,553 282,599 288,686l-82,0C202,643 185,613 149,613C115,613 96,643 95,686z"
   id="glyph613" />
<glyph
   unicode=""
   horiz-adv-x="300"
   d="M11,840C17,764 62,724 147,724C234,724 284,763 289,840l-86,0C199,804 187,779 150,779C111,779 100,805 98,840z"
   id="glyph615" />
<glyph
   unicode=""
   horiz-adv-x="300"
   d="M189,793l-83,-140l68,0l118,140M8,665C10,592 59,532 150,532C233,532 289,585 292,665l-62,0C227,632 200,601 150,601C106,601 76,628 71,665z"
   id="glyph617" />
<glyph
   unicode=""
   horiz-adv-x="300"
   d="M18,812C25,750 67,699 151,699C236,699 280,753 287,812l-57,0C222,784 201,765 153,765C106,765 84,788 78,812M180,912l-71,-110l69,0l118,110z"
   id="glyph619" />
<glyph
   unicode=""
   horiz-adv-x="300"
   d="M8,793l118,-140l67,0l-82,140M6,665C8,592 56,532 147,532C231,532 287,585 289,665l-62,0C224,632 198,601 147,601C103,601 74,628 68,665z"
   id="glyph621" />
<glyph
   unicode=""
   horiz-adv-x="300"
   d="M14,912l118,-110l69,0l-71,110M19,812C26,750 67,699 152,699C236,699 281,753 288,812l-58,0C222,784 201,765 154,765C107,765 85,788 78,812z"
   id="glyph623" />
<glyph
   unicode=""
   horiz-adv-x="300"
   d="M169,643C194,689 239,698 239,751C239,792 201,826 153,826C100,826 68,796 48,757l39,-24C97,748 112,767 131,767C149,767 162,754 162,737C162,706 128,697 114,656M8,665C10,592 59,532 150,532C233,532 289,585 292,665l-62,0C227,632 200,601 150,601C106,601 76,628 71,665z"
   id="glyph625" />
<glyph
   unicode=""
   horiz-adv-x="300"
   d="M172,789C198,835 243,844 243,898C243,938 206,972 158,972C105,972 73,942 53,903l39,-24C102,895 117,914 137,914C154,914 167,901 167,883C167,853 133,844 119,802M19,812C27,750 68,699 153,699C237,699 282,753 289,812l-58,0C223,784 202,765 154,765C107,765 86,788 79,812z"
   id="glyph627" />
<glyph
   unicode=""
   horiz-adv-x="300"
   d="M80,705C82,721 89,736 104,736C116,736 126,730 145,720C166,710 184,699 209,699C260,699 287,733 285,806l-59,0C223,774 215,765 199,765C187,765 172,773 156,782C135,793 117,802 93,802C46,802 18,762 18,705M12,665C14,593 59,532 150,532C233,532 286,585 288,665l-62,0C223,632 198,598 149,598C107,598 80,628 74,665z"
   id="glyph629" />
<glyph
   unicode=""
   horiz-adv-x="300"
   d="M82,844C84,860 91,874 106,874C118,874 128,869 147,859C168,848 186,838 211,838C262,838 289,872 287,944l-59,0C225,912 217,904 201,904C189,904 174,912 158,921C137,932 119,941 95,941C48,941 20,901 19,844M16,812C23,750 65,699 149,699C234,699 278,753 285,812l-57,0C220,784 199,765 151,765C104,765 82,788 76,812z"
   id="glyph631" />
<glyph
   unicode="¦"
   horiz-adv-x="263"
   d="M87,174l0,-350l89,0l0,350M87,674l0,-350l89,0l0,350z"
   id="glyph633" />
<glyph
   unicode="•"
   horiz-adv-x="313"
   d="M156,142C223,142 275,195 275,261C275,328 222,380 156,380C91,380 36,328 38,261C38,193 91,142 155,142z"
   id="glyph635" />
<glyph
   unicode="c"
   horiz-adv-x="449"
   d="M407,106C383,96 353,87 310,87C226,87 161,144 161,244C160,333 216,402 310,402C354,402 383,392 403,383l22,92C397,488 351,498 306,498C135,498 35,384 35,238C35,87 134,-11 286,-11C347,-11 398,3 424,15z"
   id="glyph637" />
<glyph
   unicode="ć"
   horiz-adv-x="449"
   d="M296,698l-87,-148l85,0l123,148M407,106C383,96 353,87 310,87C226,87 161,144 161,244C160,333 216,402 310,402C354,402 383,392 403,383l22,92C397,488 351,498 306,498C135,498 35,384 35,238C35,87 134,-11 286,-11C347,-11 398,3 424,15z"
   id="glyph639" />
<glyph
   unicode="ˇ"
   horiz-adv-x="300"
   d="M193,550l97,148l-84,0l-55,-91l-2,0l-54,91l-85,0l98,-148z"
   id="glyph641" />
<glyph
   unicode=""
   horiz-adv-x="300"
   d="M197,710l101,119l-91,0l-55,-66l-2,0l-57,66l-92,0l103,-119z"
   id="glyph643" />
<glyph
   unicode="č"
   horiz-adv-x="449"
   d="M308,550l97,148l-84,0l-55,-91l-2,0l-54,91l-85,0l98,-148M407,106C383,96 353,87 310,87C226,87 161,144 161,244C160,333 216,402 310,402C354,402 383,392 403,383l22,92C397,488 351,498 306,498C135,498 35,384 35,238C35,87 134,-11 286,-11C347,-11 398,3 424,15z"
   id="glyph645" />
<glyph
   unicode="ç"
   horiz-adv-x="449"
   d="M407,106C383,96 352,87 310,87C226,87 161,144 161,244C160,333 216,402 310,402C354,402 383,392 403,383l22,92C397,488 351,498 306,498C135,498 35,384 35,238C35,104 114,11 239,-6l-41,-81C250,-92 276,-103 277,-126C277,-147 258,-154 237,-154C218,-154 197,-149 182,-140l-17,-54C185,-207 216,-213 243,-213C298,-213 355,-190 355,-124C355,-80 321,-55 284,-47l21,37C359,-9 402,4 424,15z"
   id="glyph647" />
<glyph
   unicode="ĉ"
   horiz-adv-x="449"
   d="M221,698l-97,-148l84,0l54,91l2,0l54,-91l84,0l-97,148M407,106C383,96 353,87 310,87C226,87 161,144 161,244C160,333 216,402 310,402C354,402 383,392 403,383l22,92C397,488 351,498 306,498C135,498 35,384 35,238C35,87 134,-11 286,-11C347,-11 398,3 424,15z"
   id="glyph649" />
<glyph
   unicode="ċ"
   horiz-adv-x="449"
   d="M272,563C307,563 332,591 332,625C332,660 306,687 272,687C237,687 210,660 210,625C210,591 236,563 271,563M407,106C383,96 353,87 310,87C226,87 161,144 161,244C160,333 216,402 310,402C354,402 383,392 403,383l22,92C397,488 351,498 306,498C135,498 35,384 35,238C35,87 134,-11 286,-11C347,-11 398,3 424,15z"
   id="glyph651" />
<glyph
   unicode="¸"
   horiz-adv-x="300"
   d="M128,3l-45,-84C135,-85 161,-98 161,-120C161,-141 142,-149 122,-149C106,-149 85,-143 68,-133l-18,-50C68,-195 96,-202 125,-202C185,-202 239,-180 239,-118C239,-78 205,-51 167,-47l30,50z"
   id="glyph653" />
<glyph
   unicode=""
   horiz-adv-x="300"
   d="M129,3l-44,-90C137,-92 164,-104 164,-127C164,-146 146,-154 125,-154C105,-154 84,-148 69,-140l-17,-54C72,-206 103,-213 131,-213C186,-213 243,-190 243,-125C243,-81 209,-55 171,-47l27,50z"
   id="glyph655" />
<glyph
   unicode="¢"
   horiz-adv-x="536"
   d="M356,-13l0,98C400,88 439,99 461,111l-17,89C419,189 386,179 338,179C260,179 196,232 196,332C196,420 251,486 340,486C384,486 414,476 436,465l22,92C432,568 394,578 356,579l0,94l-82,0l0,-98C147,552 71,451 71,327C71,258 93,200 127,160C163,120 210,95 274,87l0,-100z"
   id="glyph657" />
<glyph
   unicode=""
   horiz-adv-x="323"
   d="M218,-6l0,57C244,52 267,59 282,66l-12,62C255,122 235,117 208,117C163,117 125,144 125,201C125,250 156,284 208,284C233,284 251,278 264,272l14,65C261,344 239,349 218,349l0,54l-57,0l0,-56C80,332 36,269 36,196C36,157 48,122 70,98C92,74 121,58 161,52l0,-58z"
   id="glyph659" />
<glyph
   unicode=""
   horiz-adv-x="323"
   d="M218,-153l0,57C244,-95 267,-88 282,-81l-12,62C255,-25 235,-30 208,-30C163,-30 125,-3 125,54C125,103 156,137 208,137C233,137 251,131 264,125l14,65C261,197 239,202 218,202l0,54l-57,0l0,-56C80,185 36,122 36,49C36,10 48,-25 70,-49C92,-73 121,-89 161,-95l0,-58z"
   id="glyph661" />
<glyph
   unicode=""
   horiz-adv-x="323"
   d="M218,260l0,57C244,318 267,325 282,332l-12,62C255,388 235,383 208,383C163,383 125,410 125,467C125,516 156,550 208,550C233,550 251,544 264,538l14,65C261,610 239,615 218,615l0,54l-57,0l0,-56C80,598 36,535 36,462C36,423 48,388 70,364C92,340 121,324 161,318l0,-58z"
   id="glyph663" />
<glyph
   unicode=""
   horiz-adv-x="323"
   d="M218,437l0,57C244,495 267,502 282,509l-12,62C255,565 235,560 208,560C163,560 125,587 125,644C125,693 156,727 208,727C233,727 251,721 264,715l14,65C261,787 239,792 218,792l0,54l-57,0l0,-56C80,775 36,712 36,639C36,600 48,565 70,541C92,517 121,501 161,495l0,-58z"
   id="glyph665" />
<glyph
   unicode=""
   horiz-adv-x="547"
   d="M417,143C395,133 363,125 321,125C252,125 195,166 195,250C195,326 246,375 322,375C360,375 391,368 410,359l19,80C407,448 370,457 335,457l0,68l-72,0l0,-71C149,435 80,350 80,245C80,131 154,57 263,43l0,-74l72,0l0,73C375,43 413,54 432,63z"
   id="glyph667" />
<glyph
   unicode="χ"
   horiz-adv-x="483"
   d="M10,487l168,-331l-173,-347l105,-29l80,176C208,-5 221,28 232,53l4,1l129,-274l116,28l-173,349l170,330l-118,0l-64,-144C279,307 266,277 254,248l-3,0l-108,239z"
   id="glyph669" />
<glyph
   unicode="ˆ"
   horiz-adv-x="300"
   d="M108,698l-97,-148l84,0l54,91l2,0l54,-91l84,0l-97,148z"
   id="glyph671" />
<glyph
   unicode=""
   horiz-adv-x="300"
   d="M103,829l-101,-119l90,0l56,65l2,0l57,-65l92,0l-103,119z"
   id="glyph673" />
<glyph
   unicode=""
   horiz-adv-x="300"
   d="M91,561C95,605 113,635 149,635C182,635 201,605 203,561l82,0C281,640 241,695 151,695C69,695 15,650 10,561z"
   id="glyph675" />
<glyph
   unicode=""
   horiz-adv-x="300"
   d="M289,723C284,796 238,838 153,838C66,838 17,798 11,723l87,0C102,757 113,783 151,783C189,783 200,756 203,723z"
   id="glyph677" />
<glyph
   unicode=""
   horiz-adv-x="300"
   d="M106,698l-87,-148l82,0l48,90l2,0l47,-90l83,0l-87,148M321,787l-73,-141l66,0l108,141z"
   id="glyph679" />
<glyph
   unicode=""
   horiz-adv-x="300"
   d="M110,829l-91,-119l84,0l50,66l2,0l49,-66l85,0l-92,119M320,908l-80,-110l63,0l128,110z"
   id="glyph681" />
<glyph
   unicode=""
   horiz-adv-x="300"
   d="M190,788l100,-142l65,0l-66,142M106,698l-87,-148l82,0l48,90l2,0l47,-90l83,0l-87,148z"
   id="glyph683" />
<glyph
   unicode=""
   horiz-adv-x="300"
   d="M181,892l114,-109l68,0l-69,109M106,829l-91,-119l84,0l49,66l2,0l50,-66l85,0l-92,119z"
   id="glyph685" />
<glyph
   unicode=""
   horiz-adv-x="300"
   d="M106,698l-87,-148l82,0l48,90l2,0l47,-90l83,0l-87,148M317,634C343,680 387,689 387,742C387,782 350,817 301,817C249,817 216,787 196,748l39,-24C245,739 261,758 280,758C297,758 310,745 310,728C310,697 277,688 262,647z"
   id="glyph687" />
<glyph
   unicode=""
   horiz-adv-x="300"
   d="M111,829l-91,-119l84,0l49,66l2,0l49,-66l86,0l-93,119M324,756C350,805 394,814 394,865C394,907 358,940 309,940C257,940 225,910 205,871l39,-24C254,864 270,883 291,883C309,883 323,870 323,852C323,821 287,811 272,769z"
   id="glyph689" />
<glyph
   unicode=""
   horiz-adv-x="300"
   d="M106,675l-92,-125l85,0l50,72l2,0l50,-72l86,0l-93,125M81,689C83,713 91,727 106,727C118,727 129,722 147,712C168,701 187,691 212,691C262,691 290,725 288,797l-60,0C226,765 217,757 201,757C189,757 175,765 159,774C138,785 119,794 95,794C48,794 18,753 20,689z"
   id="glyph691" />
<glyph
   unicode=""
   horiz-adv-x="300"
   d="M105,829l-101,-119l90,0l57,65l2,0l56,-65l92,0l-103,119M83,844C85,867 93,882 108,882C120,882 131,876 149,866C170,856 189,845 214,845C264,845 292,879 289,952l-59,0C228,920 219,911 203,911C191,911 177,919 161,928C140,939 121,948 97,948C50,948 20,908 22,844z"
   id="glyph693" />
<glyph
   unicode=":"
   horiz-adv-x="236"
   d="M127,326C173,326 203,359 203,404C202,450 172,483 127,483C83,483 51,450 51,404C51,359 82,326 126,326M127,-11C173,-11 203,23 203,67C202,114 172,146 127,146C83,146 51,113 51,67C51,23 82,-11 126,-11z"
   id="glyph695" />
<glyph
   unicode=","
   horiz-adv-x="236"
   d="M92,-113C131,-49 176,59 204,153l-129,-10C62,60 35,-45 8,-121z"
   id="glyph697" />
<glyph
   unicode=""
   horiz-adv-x="153"
   d="M59,-64C88,-17 115,46 134,108l-94,-6C31,47 15,-15 -4,-69z"
   id="glyph699" />
<glyph
   unicode=""
   horiz-adv-x="153"
   d="M59,-211C88,-164 115,-101 134,-39l-94,-6C31,-100 15,-162 -4,-216z"
   id="glyph701" />
<glyph
   unicode=""
   horiz-adv-x="153"
   d="M59,202C88,249 115,312 134,374l-94,-6C31,313 15,251 -4,197z"
   id="glyph703" />
<glyph
   unicode=""
   horiz-adv-x="153"
   d="M59,379C88,426 115,489 134,551l-94,-6C31,490 15,428 -4,374z"
   id="glyph705" />
<glyph
   unicode="©"
   horiz-adv-x="677"
   d="M340,648C169,648 34,510 34,340C34,168 169,30 340,30C510,30 643,168 643,340C643,510 510,648 341,648M339,598C476,598 585,483 585,339C585,194 476,79 339,80C201,80 92,194 92,338C92,483 201,598 338,598M474,493C461,505 414,520 364,520C262,520 171,448 171,334C171,232 238,153 355,153C398,153 444,161 479,185l-14,45C442,215 405,205 364,205C282,205 233,262 233,337C233,416 280,468 364,468C410,468 448,453 461,445z"
   id="glyph707" />
<glyph
   unicode="¤"
   horiz-adv-x="536"
   d="M268,543C223,543 182,529 153,504l-73,81l-57,-59l81,-74C86,425 68,386 68,331C68,279 85,237 104,211l-78,-75l56,-56l69,80C179,135 225,121 266,121C306,121 353,135 383,162l71,-82l56,56l-80,78C448,239 465,280 465,335C465,387 449,426 432,452l83,75l-57,58l-74,-80C355,528 315,543 269,543M267,459C331,459 370,401 370,334C370,243 316,205 266,205C220,205 162,245 162,332C162,405 205,459 266,459z"
   id="glyph709" />
<glyph
   unicode="d"
   horiz-adv-x="581"
   d="M392,710l0,-276l-2,0C368,470 320,498 253,498C136,498 34,401 35,238C35,88 127,-11 243,-11C314,-11 373,23 402,77l2,0l5,-77l110,0C517,33 515,87 515,137l0,573M392,211C392,198 391,186 388,175C376,122 332,88 282,88C204,88 160,153 160,242C160,333 204,403 283,403C339,403 378,364 389,316C391,306 392,294 392,284z"
   id="glyph711" />
<glyph
   unicode="†"
   horiz-adv-x="513"
   d="M201,674l11,-205l-173,9l0,-97l173,10l-11,-441l112,0l-11,441l173,-10l0,97l-173,-9l11,205z"
   id="glyph713" />
<glyph
   unicode="‡"
   horiz-adv-x="513"
   d="M201,674l9,-192l-172,10l0,-98l172,11l0,-179l-172,10l0,-97l171,9l-8,-198l111,0l-8,198l171,-9l0,97l-171,-10l0,179l171,-11l0,98l-171,-10l8,192z"
   id="glyph715" />
<glyph
   unicode="ď"
   horiz-adv-x="591"
   d="M392,710l0,-276l-2,0C368,470 320,498 253,498C136,498 34,401 35,238C35,88 127,-11 243,-11C314,-11 373,23 402,77l2,0l5,-77l110,0C517,33 515,87 515,137l0,573M392,211C392,198 391,186 388,175C376,122 332,88 282,88C204,88 160,153 160,242C160,333 204,403 283,403C339,403 378,364 389,316C391,306 392,294 392,284M609,507C625,520 678,564 678,646C678,679 662,709 645,720l-81,-15C577,689 588,664 588,639C588,599 572,565 557,543z"
   id="glyph717" />
<glyph
   unicode="đ"
   horiz-adv-x="581"
   d="M594,545l0,71l-79,0l0,94l-123,0l0,-94l-189,0l0,-71l189,0l0,-111l-2,0C368,470 320,498 253,498C136,498 34,401 35,238C35,88 127,-11 243,-11C314,-11 373,23 402,77l2,0l5,-77l110,0C517,33 515,87 515,137l0,408M392,211C392,198 391,186 388,175C376,122 332,88 282,88C204,88 160,153 160,242C160,333 204,403 283,403C339,403 378,364 389,316C391,306 392,294 392,284z"
   id="glyph719" />
<glyph
   unicode="°"
   horiz-adv-x="339"
   d="M171,685C91,685 27,623 28,543C28,468 86,405 170,405C246,405 314,463 314,547C314,621 258,685 172,685M171,626C222,626 246,584 246,545C246,499 214,465 171,465C128,465 96,499 96,543C96,585 124,626 170,626z"
   id="glyph721" />
<glyph
   unicode="δ"
   horiz-adv-x="562"
   d="M486,672C456,695 393,721 316,721C193,721 130,657 130,597C130,550 168,515 188,496l21,-17l0,-4C120,432 35,355 35,232C35,81 146,-11 279,-11C417,-11 527,87 527,239C527,331 480,402 402,463l-81,65C280,560 257,577 257,597C257,617 279,632 324,632C377,632 433,608 452,594M326,377C376,336 403,285 403,229C403,136 351,78 286,78C220,78 161,141 161,233C161,325 215,383 277,417z"
   id="glyph723" />
<glyph
   unicode="¨"
   horiz-adv-x="300"
   d="M51,563C86,563 111,591 111,624C111,660 85,686 52,686C16,686 -11,659 -11,624C-11,591 15,563 50,563M250,563C285,563 310,591 310,624C310,660 285,686 250,686C215,686 189,659 189,624C189,591 214,563 249,563z"
   id="glyph725" />
<glyph
   unicode=""
   horiz-adv-x="300"
   d="M52,716C86,716 110,744 110,777C110,811 85,837 52,837C18,837 -8,811 -8,777C-8,744 17,716 51,716M249,716C284,716 308,744 308,777C308,811 283,837 250,837C215,837 190,811 190,777C190,744 214,716 248,716z"
   id="glyph727" />
<glyph
   unicode=""
   horiz-adv-x="301"
   d="M8,566C41,566 65,592 65,625C65,658 41,683 9,683C-24,683 -49,658 -49,625C-49,593 -25,566 7,566M289,566C323,566 347,591 347,625C347,658 323,683 290,683C257,683 232,658 232,625C232,593 256,566 288,566M136,706l-67,-148l77,0l102,148z"
   id="glyph729" />
<glyph
   unicode=""
   horiz-adv-x="301"
   d="M-8,717C24,717 48,742 48,774C48,807 24,832 -7,832C-40,832 -65,807 -65,774C-65,743 -41,717 -9,717M310,717C343,717 367,741 367,774C367,807 343,832 311,832C279,832 254,807 254,774C254,743 278,717 309,717M126,832l-78,-121l90,0l116,121z"
   id="glyph731" />
<glyph
   unicode=""
   horiz-adv-x="301"
   d="M11,566C44,566 68,592 68,625C68,658 44,683 12,683C-21,683 -47,658 -47,625C-47,593 -23,566 10,566M288,566C322,566 346,591 346,625C346,658 322,683 289,683C256,683 231,658 231,625C231,593 255,566 287,566M52,706l103,-148l76,0l-66,148z"
   id="glyph733" />
<glyph
   unicode=""
   horiz-adv-x="301"
   d="M-9,717C24,717 48,742 48,774C48,807 24,832 -7,832C-40,832 -65,807 -65,774C-65,743 -41,717 -10,717M310,717C343,717 367,741 367,774C367,807 343,832 311,832C279,832 254,807 254,774C254,743 278,717 309,717M46,832l116,-121l91,0l-79,121z"
   id="glyph735" />
<glyph
   unicode="΅"
   horiz-adv-x="395"
   d="M168,720l-21,-166l64,0l52,166M61,568C92,568 115,594 115,624C115,656 92,680 62,680C30,680 5,656 5,624C5,594 29,568 60,568M332,568C365,568 387,594 387,624C387,656 364,680 332,680C301,680 277,656 277,624C277,594 300,568 331,568z"
   id="glyph737" />
<glyph
   unicode="÷"
   horiz-adv-x="596"
   d="M298,377C337,377 362,404 362,442C362,482 337,508 298,508C260,508 234,482 234,442C234,404 260,377 297,377M556,228l0,78l-516,0l0,-78M298,26C337,26 362,53 362,91C362,131 337,157 298,157C260,157 234,131 234,91C234,53 260,26 297,26z"
   id="glyph739" />
<glyph
   unicode="$"
   horiz-adv-x="536"
   d="M304,-86l0,103C414,35 473,110 473,195C473,284 423,338 311,380C226,414 190,437 190,478C190,512 215,548 285,548C353,548 397,525 421,514l27,92C416,622 373,637 310,639l0,93l-82,0l0,-98C127,616 67,550 67,464C67,371 135,323 240,285C314,258 349,229 349,184C349,136 306,105 243,105C182,105 126,126 87,149l-27,-94C96,31 159,13 222,11l0,-97z"
   id="glyph741" />
<glyph
   unicode=""
   horiz-adv-x="336"
   d="M194,-51l0,61C265,21 303,67 303,119C303,174 273,207 200,231C141,251 124,262 124,284C124,302 137,321 179,321C223,321 253,306 268,299l18,64C267,372 234,382 197,383l0,53l-56,0l0,-56C75,368 37,327 37,274C37,215 80,189 149,165C198,148 216,136 216,112C216,87 193,71 154,71C114,71 78,83 51,98l-18,-65C57,18 97,7 139,6l0,-57z"
   id="glyph743" />
<glyph
   unicode=""
   horiz-adv-x="336"
   d="M194,-198l0,61C265,-126 303,-80 303,-28C303,27 273,60 200,84C141,104 124,115 124,137C124,155 137,174 179,174C223,174 253,159 268,152l18,64C267,225 234,235 197,236l0,53l-56,0l0,-56C75,221 37,180 37,127C37,68 80,42 149,18C198,1 216,-11 216,-35C216,-60 193,-76 154,-76C114,-76 78,-64 51,-49l-18,-65C57,-129 97,-140 139,-141l0,-57z"
   id="glyph745" />
<glyph
   unicode=""
   horiz-adv-x="336"
   d="M194,215l0,61C265,287 303,333 303,385C303,440 273,473 200,497C141,517 124,528 124,550C124,568 137,587 179,587C223,587 253,572 268,565l18,64C267,638 234,648 197,649l0,53l-56,0l0,-56C75,634 37,593 37,540C37,481 80,455 149,431C198,414 216,402 216,378C216,353 193,337 154,337C114,337 78,349 51,364l-18,-65C57,284 97,273 139,272l0,-57z"
   id="glyph747" />
<glyph
   unicode=""
   horiz-adv-x="336"
   d="M194,392l0,61C265,464 303,510 303,562C303,617 273,650 200,674C141,694 124,705 124,727C124,745 137,764 179,764C223,764 253,749 268,742l18,64C267,815 234,825 197,826l0,53l-56,0l0,-56C75,811 37,770 37,717C37,658 80,632 149,608C198,591 216,579 216,555C216,530 193,514 154,514C114,514 78,526 51,541l-18,-65C57,461 97,450 139,449l0,-57z"
   id="glyph749" />
<glyph
   unicode=""
   horiz-adv-x="547"
   d="M311,-85l0,86C414,18 468,79 468,145C468,211 425,256 315,290C234,316 216,330 216,359C216,388 252,407 300,407C348,407 395,390 420,376l27,80C419,471 372,486 317,489l0,85l-75,0l0,-89C151,471 93,421 93,352C93,283 139,244 248,209C318,186 340,169 340,139C340,104 301,85 250,85C201,85 140,103 109,123l-28,-83C117,17 179,0 237,-2l0,-83z"
   id="glyph751" />
<glyph
   unicode="₫"
   horiz-adv-x="536"
   d="M88,101l0,-75l363,0l0,75M342,670l0,-62l-122,0l0,-61l122,0l0,-76l-2,0C322,497 285,516 237,516C143,516 65,446 65,328C65,220 136,149 227,149C282,149 327,172 350,211l2,0l4,-54l94,0C448,181 447,220 447,256l0,291l63,0l0,61l-63,0l0,62M342,314C342,305 341,296 339,288C331,252 296,229 258,229C204,229 172,272 172,332C172,393 203,439 260,439C300,439 333,412 340,380C342,374 342,365 342,357z"
   id="glyph753" />
<glyph
   unicode=""
   horiz-adv-x="536"
   d="M342,670l0,-62l-122,0l0,-61l122,0l0,-76l-2,0C322,497 285,516 237,516C143,516 65,446 65,328C65,220 136,149 227,149C282,149 327,172 350,211l2,0l4,-54l94,0C448,181 447,220 447,256l0,291l63,0l0,61l-63,0l0,62M342,314C342,305 341,296 339,288C331,252 296,229 258,229C204,229 172,272 172,332C172,393 203,439 260,439C300,439 333,412 340,380C342,374 342,365 342,357z"
   id="glyph755" />
<glyph
   unicode="˙"
   horiz-adv-x="300"
   d="M130,563C165,563 190,591 190,625C190,660 164,687 130,687C95,687 68,660 68,625C68,591 94,563 129,563z"
   id="glyph757" />
<glyph
   unicode=""
   horiz-adv-x="300"
   d="M151,717C185,717 210,745 210,777C210,810 185,837 152,837C117,837 90,810 90,777C90,745 117,717 150,717z"
   id="glyph759" />
<glyph
   unicode="ı"
   horiz-adv-x="256"
   d="M190,0l0,487l-124,0l0,-487z"
   id="glyph761" />
<glyph
   unicode="e"
   horiz-adv-x="516"
   d="M479,209C481,220 483,238 483,261C483,368 432,498 273,498C117,498 35,371 35,236C35,87 128,-11 286,-11C356,-11 414,3 456,20l-18,85C401,91 360,83 303,83C225,83 156,121 153,209M153,295C158,345 190,414 266,414C348,414 368,340 367,295z"
   id="glyph763" />
<glyph
   unicode="é"
   horiz-adv-x="516"
   d="M302,698l-87,-148l85,0l123,148M479,209C481,220 483,238 483,261C483,368 432,498 273,498C117,498 35,371 35,236C35,87 128,-11 286,-11C356,-11 414,3 456,20l-18,85C401,91 360,83 303,83C225,83 156,121 153,209M153,295C158,345 190,414 266,414C348,414 368,340 367,295z"
   id="glyph765" />
<glyph
   unicode="ĕ"
   horiz-adv-x="516"
   d="M129,688C129,616 170,553 261,553C344,553 393,608 393,688l-67,0C324,655 304,623 260,623C223,623 201,651 196,688M479,209C481,220 483,238 483,261C483,368 432,498 273,498C117,498 35,371 35,236C35,87 128,-11 286,-11C356,-11 414,3 456,20l-18,85C401,91 360,83 303,83C225,83 156,121 153,209M153,295C158,345 190,414 266,414C348,414 368,340 367,295z"
   id="glyph767" />
<glyph
   unicode="ě"
   horiz-adv-x="516"
   d="M304,550l97,148l-84,0l-55,-91l-2,0l-54,91l-85,0l98,-148M479,209C481,220 483,238 483,261C483,368 432,498 273,498C117,498 35,371 35,236C35,87 128,-11 286,-11C356,-11 414,3 456,20l-18,85C401,91 360,83 303,83C225,83 156,121 153,209M153,295C158,345 190,414 266,414C348,414 368,340 367,295z"
   id="glyph769" />
<glyph
   unicode="ê"
   horiz-adv-x="516"
   d="M227,698l-97,-148l84,0l54,91l2,0l54,-91l84,0l-97,148M479,209C481,220 483,238 483,261C483,368 432,498 273,498C117,498 35,371 35,236C35,87 128,-11 286,-11C356,-11 414,3 456,20l-18,85C401,91 360,83 303,83C225,83 156,121 153,209M153,295C158,345 190,414 266,414C348,414 368,340 367,295z"
   id="glyph771" />
<glyph
   unicode="ë"
   horiz-adv-x="516"
   d="M176,563C211,563 236,591 236,624C236,660 210,686 177,686C141,686 114,659 114,624C114,591 140,563 175,563M375,563C410,563 435,591 435,624C435,660 410,686 375,686C340,686 314,659 314,624C314,591 339,563 374,563M479,209C481,220 483,238 483,261C483,368 432,498 273,498C117,498 35,371 35,236C35,87 128,-11 286,-11C356,-11 414,3 456,20l-18,85C401,91 360,83 303,83C225,83 156,121 153,209M153,295C158,345 190,414 266,414C348,414 368,340 367,295z"
   id="glyph773" />
<glyph
   unicode="ė"
   horiz-adv-x="516"
   d="M263,563C298,563 323,591 323,625C323,660 297,687 263,687C228,687 201,660 201,625C201,591 227,563 262,563M479,209C481,220 483,238 483,261C483,368 432,498 273,498C117,498 35,371 35,236C35,87 128,-11 286,-11C356,-11 414,3 456,20l-18,85C401,91 360,83 303,83C225,83 156,121 153,209M153,295C158,345 190,414 266,414C348,414 368,340 367,295z"
   id="glyph775" />
<glyph
   unicode="è"
   horiz-adv-x="516"
   d="M126,698l122,-148l86,0l-87,148M479,209C481,220 483,238 483,261C483,368 432,498 273,498C117,498 35,371 35,236C35,87 128,-11 286,-11C356,-11 414,3 456,20l-18,85C401,91 360,83 303,83C225,83 156,121 153,209M153,295C158,345 190,414 266,414C348,414 368,340 367,295z"
   id="glyph777" />
<glyph
   unicode="8"
   horiz-adv-x="536"
   d="M156,336C81,303 34,248 34,167C34,76 113,-11 265,-11C404,-11 502,67 502,183C502,264 449,320 378,347l0,3C449,385 478,442 478,497C478,577 414,661 274,661C151,661 57,589 57,483C57,426 88,372 156,339M269,76C200,76 158,126 160,181C160,235 195,277 256,295C328,275 377,239 377,173C377,117 334,76 269,76M268,576C334,576 361,529 361,484C361,435 324,399 280,386C218,403 174,435 174,488C174,535 206,576 268,576z"
   id="glyph779" />
<glyph
   unicode=""
   horiz-adv-x="346"
   d="M175,395C97,395 37,352 37,286C37,252 58,219 98,201l0,-2C53,180 23,149 23,102C23,52 68,-5 170,-5C263,-5 323,44 323,112C323,162 285,194 246,208l0,2C286,228 306,261 306,296C306,345 265,395 176,395M173,56C135,56 112,82 112,111C112,140 131,161 166,172C202,162 233,145 233,107C233,77 209,56 174,56M173,336C208,336 225,311 225,286C225,260 205,241 180,233C143,244 119,261 119,289C119,315 138,336 172,336z"
   id="glyph781" />
<glyph
   unicode=""
   horiz-adv-x="536"
   d="M156,336C81,303 34,248 34,167C34,76 113,-11 265,-11C404,-11 502,67 502,183C502,264 449,320 378,347l0,3C449,385 478,442 478,497C478,577 414,661 274,661C151,661 57,589 57,483C57,426 88,372 156,339M269,76C200,76 158,126 160,181C160,235 195,277 256,295C328,275 377,239 377,173C377,117 334,76 269,76M268,576C334,576 361,529 361,484C361,435 324,399 280,386C218,403 174,435 174,488C174,535 206,576 268,576z"
   id="glyph783" />
<glyph
   unicode="₈"
   horiz-adv-x="346"
   d="M175,248C97,248 37,205 37,139C37,105 58,72 98,54l0,-2C53,33 23,2 23,-45C23,-95 68,-152 170,-152C263,-152 323,-103 323,-35C323,15 285,47 246,61l0,2C286,81 306,114 306,149C306,198 265,248 176,248M173,-91C135,-91 112,-65 112,-36C112,-7 131,14 166,25C202,15 233,-2 233,-40C233,-70 209,-91 174,-91M173,189C208,189 225,164 225,139C225,113 205,94 180,86C143,97 119,114 119,142C119,168 138,189 172,189z"
   id="glyph785" />
<glyph
   unicode=""
   horiz-adv-x="346"
   d="M175,661C97,661 37,618 37,552C37,518 58,485 98,467l0,-2C53,446 23,415 23,368C23,318 68,261 170,261C263,261 323,310 323,378C323,428 285,460 246,474l0,2C286,494 306,527 306,562C306,611 265,661 176,661M173,322C135,322 112,348 112,377C112,406 131,427 166,438C202,428 233,411 233,373C233,343 209,322 174,322M173,602C208,602 225,577 225,552C225,526 205,507 180,499C143,510 119,527 119,555C119,581 138,602 172,602z"
   id="glyph787" />
<glyph
   unicode=""
   horiz-adv-x="535"
   d="M376,325C436,354 474,397 474,458C474,540 402,613 273,613C147,613 59,543 59,444C59,384 98,342 154,317l0,-4C84,282 36,230 36,159C36,60 127,-11 263,-11C397,-11 498,62 498,172C498,246 443,295 376,321M272,534C318,534 362,505 362,450C362,403 326,371 284,357C218,375 179,407 179,452C179,500 217,534 271,534M265,74C201,74 159,115 159,170C159,219 195,259 250,277C325,257 371,218 371,163C371,110 325,74 266,74z"
   id="glyph789" />
<glyph
   unicode="⁸"
   horiz-adv-x="346"
   d="M175,838C97,838 37,795 37,729C37,695 58,662 98,644l0,-2C53,623 23,592 23,545C23,495 68,438 170,438C263,438 323,487 323,555C323,605 285,637 246,651l0,2C286,671 306,704 306,739C306,788 265,838 176,838M173,499C135,499 112,525 112,554C112,583 131,604 166,615C202,605 233,588 233,550C233,520 209,499 174,499M173,779C208,779 225,754 225,729C225,703 205,684 180,676C143,687 119,704 119,732C119,758 138,779 172,779z"
   id="glyph791" />
<glyph
   unicode=""
   horiz-adv-x="547"
   d="M381,325C441,354 479,397 479,458C479,540 407,613 278,613C152,613 64,543 64,444C64,384 103,342 159,317l0,-4C89,282 41,230 41,159C41,60 132,-11 268,-11C402,-11 503,62 503,172C503,246 448,295 381,321M277,534C323,534 367,505 367,450C367,403 331,371 289,357C223,375 184,407 184,452C184,500 222,534 276,534M270,74C206,74 164,115 164,170C164,219 200,259 255,277C330,257 376,218 376,163C376,110 330,74 271,74z"
   id="glyph793" />
<glyph
   unicode="…"
   horiz-adv-x="1000"
   d="M166,-11C212,-11 243,23 243,68C242,115 212,147 167,147C122,147 91,114 91,68C90,23 122,-11 165,-11M500,-11C546,-11 576,23 576,68C576,115 545,147 500,147C456,147 424,114 424,68C424,23 455,-11 499,-11M834,-11C880,-11 910,23 910,68C909,115 879,147 834,147C789,147 758,114 758,68C757,23 789,-11 833,-11z"
   id="glyph795" />
<glyph
   unicode="ē"
   horiz-adv-x="516"
   d="M142,655l0,-71l239,0l0,71M479,209C481,220 483,238 483,261C483,368 432,498 273,498C117,498 35,371 35,236C35,87 128,-11 286,-11C356,-11 414,3 456,20l-18,85C401,91 360,83 303,83C225,83 156,121 153,209M153,295C158,345 190,414 266,414C348,414 368,340 367,295z"
   id="glyph797" />
<glyph
   unicode="—"
   horiz-adv-x="1000"
   d="M30,293l0,-78l940,0l0,78z"
   id="glyph799" />
<glyph
   unicode=""
   horiz-adv-x="1000"
   d="M30,368l0,-78l940,0l0,78z"
   id="glyph801" />
<glyph
   unicode="–"
   horiz-adv-x="500"
   d="M30,293l0,-78l440,0l0,78z"
   id="glyph803" />
<glyph
   unicode=""
   horiz-adv-x="500"
   d="M30,368l0,-78l440,0l0,78z"
   id="glyph805" />
<glyph
   unicode="ŋ"
   horiz-adv-x="572"
   d="M66,0l124,0l0,286C190,300 191,315 195,326C208,363 242,398 291,398C358,398 384,345 384,275l0,-233C384,-39 352,-78 284,-91l24,-97C419,-174 507,-108 507,59l0,230C507,443 419,498 334,498C253,498 200,452 179,414l-3,0l-6,73l-108,0C65,445 66,398 66,342z"
   id="glyph807" />
<glyph
   unicode="ę"
   horiz-adv-x="516"
   d="M405,-124C391,-130 373,-134 359,-134C340,-134 322,-123 322,-97C322,-60 374,-13 412,4C422,8 441,14 456,20l-18,85C401,91 360,83 303,83C225,83 156,121 153,209l326,0C481,220 483,238 483,261C483,368 432,498 273,498C117,498 35,371 35,236C35,88 127,-10 282,-11C289,-11 295,-10 302,-10l0,-1C272,-34 232,-79 232,-130C232,-182 269,-212 328,-212C364,-212 398,-202 424,-183M153,295C158,345 190,414 266,414C348,414 368,340 367,295z"
   id="glyph809" />
<glyph
   unicode="ε"
   horiz-adv-x="455"
   d="M149,258C85,246 36,198 36,138C36,28 147,-11 250,-11C314,-11 390,4 435,33l-18,82C385,98 328,81 280,81C220,81 167,105 167,151C167,198 226,214 304,215l54,0l0,82l-53,0C232,298 183,314 183,353C183,387 220,411 279,411C325,411 373,396 397,382l23,79C381,485 331,498 264,498C125,498 59,430 59,364C59,316 91,278 149,262z"
   id="glyph811" />
<glyph
   unicode="έ"
   horiz-adv-x="455"
   d="M250,694l-49,-148l81,0l82,148M149,257C85,245 36,198 36,138C36,28 147,-11 250,-11C314,-11 390,4 435,33l-18,81C385,98 328,81 280,81C220,81 167,105 167,151C167,198 226,214 304,215l54,0l0,82l-53,0C232,298 183,314 183,353C183,387 220,411 279,411C325,411 373,396 397,382l23,79C380,485 331,498 264,498C125,498 59,430 59,364C59,316 90,278 149,262z"
   id="glyph813" />
<glyph
   unicode="="
   horiz-adv-x="596"
   d="M556,330l0,79l-516,0l0,-79M556,128l0,78l-516,0l0,-78z"
   id="glyph815" />
<glyph
   unicode="℮"
   horiz-adv-x="817"
   d="M782,316C782,319 782,322 782,325C782,511 615,661 409,661C203,661 35,511 35,325C35,139 203,-11 409,-11C529,-11 637,41 705,120l-55,0C592,52 506,9 410,9C320,9 238,47 181,108C176,114 172,121 172,129l0,183C172,315 174,316 177,316M646,340C646,337 644,335 641,335l-464,0C174,335 172,337 172,340l0,180C172,529 176,537 182,543C240,603 320,641 410,641C498,641 578,604 636,546C642,540 646,533 646,524z"
   id="glyph817" />
<glyph
   unicode="η"
   horiz-adv-x="572"
   d="M176,414C175,442 170,469 161,487l-110,0C63,451 66,398 66,342l0,-342l124,0l0,286C190,300 191,315 195,326C208,363 242,398 291,398C358,398 384,345 384,275l0,-298C384,-88 387,-171 400,-198l118,0C507,-159 507,-80 507,-22l0,311C507,443 419,498 334,498C253,498 200,452 179,414z"
   id="glyph819" />
<glyph
   unicode="ή"
   horiz-adv-x="572"
   d="M294,694l-49,-148l81,0l82,148M176,414C175,442 170,469 161,487l-110,0C63,451 66,398 66,342l0,-342l124,0l0,286C190,300 191,315 195,326C208,363 242,398 291,398C358,398 384,345 384,275l0,-298C384,-88 387,-171 400,-198l118,0C507,-159 507,-80 507,-22l0,311C507,443 419,498 334,498C253,498 200,452 179,414z"
   id="glyph821" />
<glyph
   unicode="ð"
   horiz-adv-x="560"
   d="M278,78C207,78 162,150 162,238C162,307 193,400 281,400C321,400 349,383 368,361C388,335 396,299 396,242C396,146 353,78 279,78M111,491l143,64C296,525 329,490 355,451l-2,-3C323,473 294,479 263,478C142,476 35,386 35,237C35,85 140,-11 278,-11C400,-11 523,70 523,255C523,327 509,390 481,445C452,504 410,556 357,599l105,48l-26,52l-133,-60C256,670 203,699 153,719l-54,-72C134,632 168,614 198,594l-110,-50z"
   id="glyph823" />
<glyph
   unicode="!"
   horiz-adv-x="251"
   d="M172,208l18,466l-130,0l18,-466M125,-11C171,-11 201,22 201,67C200,113 171,145 125,145C81,145 50,113 50,67C49,22 80,-11 124,-11z"
   id="glyph825" />
<glyph
   unicode="¡"
   horiz-adv-x="251"
   d="M191,-192l-18,463l-94,0l-18,-463M126,491C81,491 50,459 50,413C50,369 81,335 126,335C172,335 201,369 201,413C201,459 171,491 127,491z"
   id="glyph827" />
<glyph
   unicode=""
   horiz-adv-x="251"
   d="M191,0l-18,463l-94,0l-18,-463M126,683C81,683 50,651 50,605C50,561 81,527 126,527C172,527 201,561 201,605C201,651 171,683 127,683z"
   id="glyph829" />
<glyph
   unicode="f"
   horiz-adv-x="319"
   d="M203,0l0,395l106,0l0,92l-107,0l0,25C202,572 223,623 284,623C306,623 323,619 336,614l9,95C325,716 299,721 266,721C224,721 175,708 139,674C97,634 80,571 80,508l0,-21l-66,0l0,-92l66,0l0,-395z"
   id="glyph831" />
<glyph
   unicode="ﬀ"
   horiz-adv-x="620"
   d="M504,0l0,395l105,0l0,92l-106,0l0,25C503,572 523,623 584,623C607,623 623,619 637,614l8,95C626,716 600,721 567,721C524,721 476,708 440,674C397,634 380,571 380,508l0,-21l-178,0l0,17C202,565 219,612 275,612C291,612 307,608 319,603l20,91C324,701 298,708 272,708C210,708 165,689 135,658C95,618 80,560 80,497l0,-10l-66,0l0,-92l66,0l0,-395l123,0l0,395l177,0l0,-395z"
   id="glyph833" />
<glyph
   unicode="ﬃ"
   horiz-adv-x="861"
   d="M747,693C718,709 664,721 618,721C474,721 382,641 382,510l0,-23l-180,0l0,15C202,536 209,571 229,592C241,605 258,613 281,613C300,613 320,607 333,600l29,89C343,698 311,708 277,708C216,708 171,688 141,659C97,617 80,558 80,499l0,-12l-66,0l0,-92l66,0l0,-395l123,0l0,395l179,0l0,-395l124,0l0,395l166,0l0,-395l123,0l0,487l-290,0l0,20C505,571 533,623 618,623C659,623 695,612 718,600z"
   id="glyph835" />
<glyph
   unicode=""
   horiz-adv-x="852"
   d="M747,693C718,709 664,721 618,721C474,721 382,641 382,510l0,-23l-180,0l0,15C202,536 209,571 229,592C241,605 258,613 281,613C300,613 320,607 333,600l29,89C343,698 311,708 277,708C216,708 171,688 141,659C97,617 80,558 80,499l0,-12l-66,0l0,-92l66,0l0,-395l123,0l0,395l179,0l0,-395l124,0l0,395l166,0l0,-308C672,-19 663,-58 640,-82C620,-104 587,-114 548,-117l12,-96C621,-213 689,-196 731,-156C776,-112 795,-49 795,52l0,435l-290,0l0,20C505,571 533,623 618,623C659,623 695,612 718,600z"
   id="glyph837" />
<glyph
   unicode="ﬄ"
   horiz-adv-x="861"
   d="M363,692C347,699 316,708 285,708C225,708 174,690 139,656C98,617 80,559 80,495l0,-8l-66,0l0,-92l66,0l0,-395l123,0l0,395l179,0l0,-395l124,0l0,395l99,0l0,92l-100,0l0,22C505,574 533,628 608,628C638,628 659,624 672,617l0,-617l123,0l0,684C752,708 692,721 626,721C553,721 497,704 454,669C408,630 382,569 382,508l0,-21l-180,0l0,16C202,538 209,571 229,591C242,605 259,613 283,613C302,613 320,608 335,601z"
   id="glyph839" />
<glyph
   unicode=""
   horiz-adv-x="559"
   d="M203,0l0,395l166,0l0,-395l124,0l0,487l-291,0l0,20C202,571 230,623 316,623C362,623 400,610 423,597l27,93C422,708 364,721 316,721C171,721 80,641 80,510l0,-23l-66,0l0,-92l66,0l0,-395z"
   id="glyph841" />
<glyph
   unicode=""
   horiz-adv-x="557"
   d="M203,0l0,395l166,0l0,-308C369,-19 360,-58 337,-82C318,-104 285,-114 245,-117l12,-96C318,-213 386,-196 429,-156C473,-112 493,-49 493,52l0,435l-291,0l0,20C202,571 230,623 316,623C362,623 400,610 423,597l27,93C422,708 364,721 316,721C171,721 80,641 80,510l0,-23l-66,0l0,-92l66,0l0,-395z"
   id="glyph843" />
<glyph
   unicode=""
   horiz-adv-x="559"
   d="M203,0l0,395l99,0l0,92l-100,0l0,22C202,574 230,628 305,628C336,628 356,624 369,617l0,-617l124,0l0,684C449,708 389,721 324,721C250,721 195,704 152,669C105,630 80,569 80,508l0,-21l-66,0l0,-92l66,0l0,-395z"
   id="glyph845" />
<glyph
   unicode="5"
   horiz-adv-x="536"
   d="M456,650l-336,0l-43,-328C103,326 130,328 166,328C296,328 351,279 351,205C351,127 282,86 210,86C151,86 95,105 67,120l-25,-93C76,8 139,-11 214,-11C374,-11 477,90 477,214C477,293 441,348 392,379C348,408 291,421 234,421C215,421 202,420 187,418l19,130l250,0z"
   id="glyph847" />
<glyph
   unicode=""
   horiz-adv-x="330"
   d="M285,389l-219,0l-26,-201C56,189 75,192 97,192C179,192 210,165 210,124C210,82 167,62 128,62C91,62 54,74 36,82l-16,-65C42,6 88,-6 132,-6C235,-6 300,53 300,130C300,176 278,210 249,228C221,247 182,253 145,253C135,253 124,253 117,252l10,65l158,0z"
   id="glyph849" />
<glyph
   unicode=""
   horiz-adv-x="485"
   d="M427,650l-336,0l-43,-328C74,326 101,328 137,328C267,328 322,279 322,205C322,127 253,86 181,86C122,86 66,105 38,120l-25,-93C47,8 110,-11 185,-11C345,-11 448,90 448,214C448,293 412,348 363,379C319,408 262,421 205,421C186,421 173,420 158,418l19,130l250,0z"
   id="glyph851" />
<glyph
   unicode="₅"
   horiz-adv-x="330"
   d="M285,242l-219,0l-26,-201C56,42 75,45 97,45C179,45 210,18 210,-23C210,-65 167,-85 128,-85C91,-85 54,-73 36,-65l-16,-65C42,-141 88,-153 132,-153C235,-153 300,-94 300,-17C300,29 278,63 249,81C221,100 182,106 145,106C135,106 124,106 117,105l10,65l158,0z"
   id="glyph853" />
<glyph
   unicode=""
   horiz-adv-x="330"
   d="M285,655l-219,0l-26,-201C56,455 75,458 97,458C179,458 210,431 210,390C210,348 167,328 128,328C91,328 54,340 36,348l-16,-65C42,272 88,260 132,260C235,260 300,319 300,396C300,442 278,476 249,494C221,513 182,519 145,519C135,519 124,519 117,518l10,65l158,0z"
   id="glyph855" />
<glyph
   unicode=""
   horiz-adv-x="455"
   d="M29,-102C55,-112 105,-121 156,-121C320,-121 419,-32 419,89C419,135 403,175 373,205C323,253 243,268 159,268l23,120l214,0l14,99l-309,0l-53,-306C168,186 235,174 268,141C284,125 293,104 293,80C293,10 225,-28 147,-28C108,-28 65,-22 43,-15z"
   id="glyph857" />
<glyph
   unicode="⁵"
   horiz-adv-x="330"
   d="M285,832l-219,0l-26,-201C56,632 75,635 97,635C179,635 210,608 210,567C210,525 167,505 128,505C91,505 54,517 36,525l-16,-65C42,449 88,437 132,437C235,437 300,496 300,573C300,619 278,653 249,671C221,690 182,696 145,696C135,696 124,696 117,695l10,65l158,0z"
   id="glyph859" />
<glyph
   unicode=""
   horiz-adv-x="547"
   d="M73,-102C99,-112 149,-121 200,-121C364,-121 463,-32 463,89C463,135 447,175 417,205C367,253 287,268 203,268l23,120l214,0l14,99l-309,0l-53,-306C212,186 279,174 312,141C328,125 337,104 337,80C337,10 269,-28 191,-28C152,-28 109,-22 87,-15z"
   id="glyph861" />
<glyph
   unicode="ƒ"
   horiz-adv-x="536"
   d="M113,320l84,0l-19,-165C165,46 145,6 90,6C71,6 55,9 39,15l-19,-86C36,-80 67,-87 105,-88C236,-88 277,5 292,130l23,190l121,0l0,87l-110,0l6,48C339,518 365,567 423,567C443,567 459,563 473,558l20,87C477,654 449,660 417,661C261,661 221,527 212,446l-5,-39l-94,0z"
   id="glyph863" />
<glyph
   unicode=""
   horiz-adv-x="547"
   d="M124,270l84,0l-17,-150C178,12 158,-28 103,-29C85,-29 68,-26 52,-19l-19,-87C49,-114 81,-122 118,-122C249,-123 290,-30 305,96l22,174l121,0l0,75l-112,0l7,61C351,469 377,518 435,518C455,518 471,514 484,509l21,88C489,605 461,613 429,613C273,613 233,478 224,397l-6,-52l-94,0z"
   id="glyph865" />
<glyph
   unicode="4"
   horiz-adv-x="536"
   d="M430,0l0,165l84,0l0,93l-84,0l0,392l-145,0l-265,-405l0,-80l294,0l0,-165M137,258l1,2l119,178C277,474 294,507 314,548l4,0C315,510 314,472 314,435l0,-177z"
   id="glyph867" />
<glyph
   unicode=""
   horiz-adv-x="372"
   d="M299,0l0,96l53,0l0,63l-53,0l0,232l-110,0l-171,-242l0,-53l191,0l0,-96M209,159l-100,0l-2,1l68,97C187,276 198,296 210,321l3,-1C211,298 209,275 209,251z"
   id="glyph869" />
<glyph
   unicode=""
   horiz-adv-x="527"
   d="M425,0l0,165l84,0l0,93l-84,0l0,392l-145,0l-265,-405l0,-80l294,0l0,-165M132,258l1,2l119,178C272,474 289,507 309,548l4,0C310,510 309,472 309,435l0,-177z"
   id="glyph871" />
<glyph
   unicode="₄"
   horiz-adv-x="372"
   d="M299,-147l0,96l53,0l0,63l-53,0l0,232l-110,0l-171,-242l0,-53l191,0l0,-96M209,12l-100,0l-2,1l68,97C187,129 198,149 210,174l3,-1C211,151 209,128 209,104z"
   id="glyph873" />
<glyph
   unicode=""
   horiz-adv-x="372"
   d="M299,266l0,96l53,0l0,63l-53,0l0,232l-110,0l-171,-242l0,-53l191,0l0,-96M209,425l-100,0l-2,1l68,97C187,542 198,562 210,587l3,-1C211,564 209,541 209,517z"
   id="glyph875" />
<glyph
   unicode=""
   horiz-adv-x="526"
   d="M507,40l0,91l-84,0l0,361l-145,0l-257,-373l0,-79l288,0l0,-161l114,0l0,161M309,131l-171,0l-2,3l113,157C270,323 290,362 307,397l5,-1C309,362 309,327 309,292z"
   id="glyph877" />
<glyph
   unicode="⁴"
   horiz-adv-x="372"
   d="M299,443l0,96l53,0l0,63l-53,0l0,232l-110,0l-171,-242l0,-53l191,0l0,-96M209,602l-100,0l-2,1l68,97C187,719 198,739 210,764l3,-1C211,741 209,718 209,694z"
   id="glyph879" />
<glyph
   unicode=""
   horiz-adv-x="547"
   d="M516,40l0,91l-84,0l0,361l-145,0l-257,-373l0,-79l288,0l0,-161l114,0l0,161M318,131l-171,0l-2,3l113,157C279,323 299,362 316,397l5,-1C318,362 318,327 318,292z"
   id="glyph881" />
<glyph
   unicode="⁄"
   horiz-adv-x="124"
   d="M-90,-11l374,672l-71,0l-374,-672z"
   id="glyph883" />
<glyph
   unicode="g"
   horiz-adv-x="573"
   d="M507,347C507,414 509,454 511,487l-107,0l-5,-65l-2,0C374,462 330,498 256,498C139,498 35,401 35,241C35,103 121,3 242,3C306,3 356,32 384,75l2,0l0,-42C386,-72 326,-114 246,-114C187,-114 135,-95 104,-77l-27,-93C119,-196 185,-209 247,-209C314,-209 384,-195 435,-150C486,-104 507,-31 507,71M384,213C384,199 382,182 379,169C365,125 325,95 279,95C202,95 160,162 160,245C160,344 211,404 280,404C332,404 367,370 380,325C383,315 384,303 384,292z"
   id="glyph885" />
<glyph
   unicode=""
   horiz-adv-x="573"
   d="M500,347C500,414 502,454 504,487l-107,0l-5,-65l-2,0C367,462 323,498 249,498C132,498 28,401 28,241C28,103 114,3 235,3C299,3 349,32 377,75l2,0l0,-42C379,-72 319,-114 239,-114C180,-114 128,-95 97,-77l-27,-93C112,-196 178,-209 240,-209C307,-209 377,-195 428,-150C479,-104 500,-31 500,71M377,213C377,199 375,182 372,169C358,125 318,95 272,95C195,95 153,162 153,245C153,344 204,404 273,404C325,404 360,370 373,325C376,315 377,303 377,292M215,562C216,591 225,607 240,607C252,607 261,601 280,590C301,579 321,569 346,569C396,569 424,605 421,685l-59,0C359,651 351,642 335,642C323,642 309,651 293,660C272,671 253,681 229,681C182,681 151,638 153,562z"
   id="glyph887" />
<glyph
   unicode="γ"
   horiz-adv-x="492"
   d="M297,-198C296,-131 296,-51 294,-2C294,7 295,14 300,22C398,166 472,327 472,451C472,463 472,478 470,487l-117,0C353,477 354,467 354,448C354,338 300,211 262,133l-4,0C231,275 167,427 128,487l-138,0C42,405 125,245 160,83C181,-12 180,-104 177,-198z"
   id="glyph889" />
<glyph
   unicode="ğ"
   horiz-adv-x="573"
   d="M151,688C151,616 192,553 283,553C366,553 415,608 415,688l-67,0C346,655 326,623 282,623C245,623 223,651 218,688M507,347C507,414 509,454 511,487l-107,0l-5,-65l-2,0C374,462 330,498 256,498C139,498 35,401 35,241C35,103 121,3 242,3C306,3 356,32 384,75l2,0l0,-42C386,-72 326,-114 246,-114C187,-114 135,-95 104,-77l-27,-93C119,-196 185,-209 247,-209C314,-209 384,-195 435,-150C486,-104 507,-31 507,71M384,213C384,199 382,182 379,169C365,125 325,95 279,95C202,95 160,162 160,245C160,344 211,404 280,404C332,404 367,370 380,325C383,315 384,303 384,292z"
   id="glyph891" />
<glyph
   unicode="ĝ"
   horiz-adv-x="573"
   d="M245,700l-97,-148l84,0l54,91l2,0l54,-91l84,0l-97,148M507,347C507,414 509,454 511,487l-107,0l-5,-65l-2,0C374,462 330,498 256,498C139,498 35,401 35,241C35,103 121,3 242,3C306,3 356,32 384,75l2,0l0,-42C386,-72 326,-114 246,-114C187,-114 135,-95 104,-77l-27,-93C119,-196 185,-209 247,-209C314,-209 384,-195 435,-150C486,-104 507,-31 507,71M384,213C384,199 382,182 379,169C365,125 325,95 279,95C202,95 160,162 160,245C160,344 211,404 280,404C332,404 367,370 380,325C383,315 384,303 384,292z"
   id="glyph893" />
<glyph
   unicode="ģ"
   horiz-adv-x="573"
   d="M507,347C507,414 509,454 511,487l-107,0l-5,-65l-2,0C374,462 330,498 256,498C139,498 35,401 35,241C35,103 121,3 242,3C306,3 356,32 384,75l2,0l0,-42C386,-72 326,-114 246,-114C187,-114 135,-95 104,-77l-27,-93C119,-196 185,-209 247,-209C314,-209 384,-195 435,-150C486,-104 507,-31 507,71M384,213C384,199 382,182 379,169C365,125 325,95 279,95C202,95 160,162 160,245C160,344 211,404 280,404C332,404 367,370 380,325C383,315 384,303 384,292M353,717C278,714 208,683 208,609C208,578 228,551 248,537l83,15C315,566 299,586 299,609C299,646 332,665 373,671z"
   id="glyph895" />
<glyph
   unicode="ġ"
   horiz-adv-x="573"
   d="M285,565C320,565 345,593 345,627C345,662 319,689 285,689C250,689 223,662 223,627C223,593 249,565 284,565M507,347C507,414 509,454 511,487l-107,0l-5,-65l-2,0C374,462 330,498 256,498C139,498 35,401 35,241C35,103 121,3 242,3C306,3 356,32 384,75l2,0l0,-42C386,-72 326,-114 246,-114C187,-114 135,-95 104,-77l-27,-93C119,-196 185,-209 247,-209C314,-209 384,-195 435,-150C486,-104 507,-31 507,71M384,213C384,199 382,182 379,169C365,125 325,95 279,95C202,95 160,162 160,245C160,344 211,404 280,404C332,404 367,370 380,325C383,315 384,303 384,292z"
   id="glyph897" />
<glyph
   unicode="ß"
   horiz-adv-x="576"
   d="M190,0l0,449C190,580 231,626 296,626C351,626 386,589 386,533C386,518 383,505 378,494C323,466 294,421 294,370C294,310 334,269 371,233C401,203 415,181 415,149C415,112 387,83 334,83C306,83 280,89 258,99l-17,-92C269,-5 310,-11 347,-11C468,-11 539,57 539,155C539,230 495,273 459,311C432,339 417,358 417,387C417,416 439,442 481,461C494,479 504,511 504,543C504,654 415,721 306,721C236,721 181,701 141,663C94,620 66,554 66,440l0,-440z"
   id="glyph899" />
<glyph
   unicode="`"
   horiz-adv-x="300"
   d="M12,698l122,-148l86,0l-87,148z"
   id="glyph901" />
<glyph
   unicode=""
   horiz-adv-x="300"
   d="M-8,830l124,-119l99,0l-88,119z"
   id="glyph903" />
<glyph
   unicode="&gt;"
   horiz-adv-x="596"
   d="M535,304l-474,228l0,-89l382,-176l0,-2l-382,-176l0,-89l474,228z"
   id="glyph905" />
<glyph
   unicode="≥"
   horiz-adv-x="596"
   d="M534,293l0,77l-472,183l0,-85l364,-136l0,-2l-364,-135l0,-86M533,0l0,74l-471,0l0,-74z"
   id="glyph907" />
<glyph
   unicode="«"
   horiz-adv-x="444"
   d="M241,440l-91,0l-123,-188l124,-188l90,0l-126,188M421,440l-90,0l-123,-188l123,-188l90,0l-125,188z"
   id="glyph909" />
<glyph
   unicode=""
   horiz-adv-x="444"
   d="M241,515l-91,0l-123,-188l124,-188l90,0l-126,188M421,515l-90,0l-123,-188l123,-188l90,0l-125,188z"
   id="glyph911" />
<glyph
   unicode="»"
   horiz-adv-x="444"
   d="M149,252l-126,-188l89,0l124,188l-124,188l-89,0M328,252l-126,-188l89,0l124,188l-124,188l-89,0z"
   id="glyph913" />
<glyph
   unicode=""
   horiz-adv-x="444"
   d="M149,327l-126,-188l89,0l124,188l-124,188l-89,0M328,327l-126,-188l89,0l124,188l-124,188l-89,0z"
   id="glyph915" />
<glyph
   unicode="‹"
   horiz-adv-x="264"
   d="M241,440l-91,0l-123,-188l124,-188l90,0l-126,188z"
   id="glyph917" />
<glyph
   unicode=""
   horiz-adv-x="264"
   d="M241,515l-91,0l-123,-188l124,-188l90,0l-126,188z"
   id="glyph919" />
<glyph
   unicode="›"
   horiz-adv-x="264"
   d="M148,252l-125,-188l89,0l124,188l-124,188l-89,0z"
   id="glyph921" />
<glyph
   unicode=""
   horiz-adv-x="264"
   d="M148,327l-125,-188l89,0l124,188l-124,188l-89,0z"
   id="glyph923" />
<glyph
   unicode="h"
   horiz-adv-x="572"
   d="M66,0l124,0l0,291C190,305 191,318 195,328C208,365 242,397 290,397C358,397 384,344 384,273l0,-273l123,0l0,287C507,443 420,498 337,498C306,498 277,490 253,476C228,463 207,443 192,420l-2,0l0,290l-124,0z"
   id="glyph925" />
<glyph
   unicode="ħ"
   horiz-adv-x="572"
   d="M507,0l0,287C507,443 420,498 337,498C306,498 277,489 253,476C228,463 207,443 192,420l-2,0l0,125l187,0l0,71l-187,0l0,94l-124,0l0,-94l-78,0l0,-71l78,0l0,-545l124,0l0,291C190,305 191,318 195,328C208,365 242,397 290,397C358,397 384,344 384,273l0,-273z"
   id="glyph927" />
<glyph
   unicode="ĥ"
   horiz-adv-x="572"
   d="M66,0l124,0l0,291C190,305 191,318 195,328C208,365 242,397 290,397C358,397 384,344 384,273l0,-273l123,0l0,287C507,443 420,498 337,498C306,498 277,490 253,476C228,463 207,443 192,420l-2,0l0,290l-124,0M86,851l-101,-119l90,0l56,65l2,0l57,-65l92,0l-103,119z"
   id="glyph929" />
<glyph
   unicode="˝"
   horiz-adv-x="300"
   d="M89,697l-71,-143l72,0l104,143M249,697l-70,-143l71,0l104,143z"
   id="glyph931" />
<glyph
   unicode=""
   horiz-adv-x="300"
   d="M92,831l-72,-114l87,0l106,114M258,831l-72,-114l87,0l106,114z"
   id="glyph933" />
<glyph
   unicode="-"
   horiz-adv-x="315"
   d="M30,309l0,-85l255,0l0,85z"
   id="glyph935" />
<glyph
   unicode=""
   horiz-adv-x="315"
   d="M30,384l0,-85l255,0l0,85z"
   id="glyph937" />
<glyph
   unicode=""
   horiz-adv-x="199"
   d="M18,215l0,-60l163,0l0,60z"
   id="glyph939" />
<glyph
   unicode=""
   horiz-adv-x="199"
   d="M18,68l0,-60l163,0l0,60z"
   id="glyph941" />
<glyph
   unicode=""
   horiz-adv-x="199"
   d="M18,481l0,-60l163,0l0,60z"
   id="glyph943" />
<glyph
   unicode=""
   horiz-adv-x="199"
   d="M18,658l0,-60l163,0l0,60z"
   id="glyph945" />
<glyph
   unicode="i"
   horiz-adv-x="256"
   d="M190,0l0,487l-124,0l0,-487M128,690C87,690 59,661 59,623C59,586 86,557 127,557C170,557 197,586 197,623C196,661 170,690 128,690z"
   id="glyph947" />
<glyph
   unicode="í"
   horiz-adv-x="256"
   d="M157,698l-87,-148l85,0l123,148M190,0l0,487l-124,0l0,-487z"
   id="glyph949" />
<glyph
   unicode="ĭ"
   horiz-adv-x="256"
   d="M-2,688C-2,616 39,553 130,553C213,553 262,608 262,688l-67,0C193,655 173,623 129,623C92,623 70,651 65,688M190,0l0,487l-124,0l0,-487z"
   id="glyph951" />
<glyph
   unicode="î"
   horiz-adv-x="256"
   d="M86,698l-97,-148l84,0l54,91l2,0l54,-91l84,0l-97,148M190,0l0,487l-124,0l0,-487z"
   id="glyph953" />
<glyph
   unicode="ï"
   horiz-adv-x="256"
   d="M29,563C64,563 89,591 89,624C89,660 63,686 30,686C-6,686 -33,659 -33,624C-33,591 -7,563 28,563M228,563C263,563 288,591 288,624C288,660 263,686 228,686C193,686 167,659 167,624C167,591 192,563 227,563M190,0l0,487l-124,0l0,-487z"
   id="glyph955" />
<glyph
   unicode="ì"
   horiz-adv-x="256"
   d="M-29,698l122,-148l86,0l-87,148M190,0l0,487l-124,0l0,-487z"
   id="glyph957" />
<glyph
   unicode="ĳ"
   horiz-adv-x="526"
   d="M190,0l0,487l-124,0l0,-487M128,690C87,690 59,661 59,623C59,586 86,557 127,557C170,557 197,586 197,623C196,661 170,690 128,690M226,-213C287,-213 355,-196 398,-156C442,-112 461,-49 461,52l0,435l-123,0l0,-400C338,-19 329,-58 306,-82C286,-104 254,-114 214,-117M400,690C358,690 331,661 331,623C331,587 357,557 398,557C442,557 468,587 468,623C468,661 442,690 400,690z"
   id="glyph959" />
<glyph
   unicode="ī"
   horiz-adv-x="256"
   d="M9,655l0,-71l239,0l0,71M190,0l0,487l-124,0l0,-487z"
   id="glyph961" />
<glyph
   unicode="∞"
   horiz-adv-x="741"
   d="M549,106C645,106 710,179 710,264C710,355 648,422 557,422C473,422 422,368 371,318C322,366 266,422 192,422C96,422 31,349 31,264C31,173 93,106 184,106C268,106 318,160 370,210C419,162 475,106 548,106M548,183C496,183 457,232 422,264C458,301 500,345 551,345C595,345 628,311 628,264C628,220 593,183 549,183M190,183C146,183 113,217 113,264C113,308 148,345 193,345C245,345 284,296 318,263C282,227 241,183 191,183z"
   id="glyph963" />
<glyph
   unicode="∫"
   horiz-adv-x="339"
   d="M331,795C320,799 300,802 279,802C240,802 203,789 177,760C138,719 120,660 120,555C120,401 133,251 133,88C133,3 121,-35 105,-55C94,-70 79,-77 62,-77C47,-77 34,-74 25,-71l-15,-77C22,-154 48,-159 73,-159C120,-159 163,-139 189,-95C211,-60 226,1 226,91C226,252 213,398 213,547C213,631 221,675 238,699C248,715 266,724 285,724C297,724 308,722 318,720z"
   id="glyph965" />
<glyph
   unicode="į"
   horiz-adv-x="256"
   d="M128,560C172,560 199,590 199,628C199,667 171,696 128,696C85,696 57,666 57,628C57,590 85,560 127,560M190,487l-124,0l0,-487C53,-23 27,-70 27,-118C27,-182 68,-215 130,-215C160,-215 198,-206 223,-187l-18,59C195,-133 180,-136 161,-136C130,-136 108,-116 108,-82C108,-52 126,-19 138,0l52,0z"
   id="glyph967" />
<glyph
   unicode="ι"
   horiz-adv-x="260"
   d="M190,487l-124,0l0,-362C66,17 110,-11 176,-11C196,-11 218,-8 229,-3l7,86C202,81 190,97 190,137z"
   id="glyph969" />
<glyph
   unicode="ϊ"
   horiz-adv-x="260"
   d="M35,552C69,552 93,579 93,612C93,647 68,673 35,673C0,673 -26,646 -26,612C-26,579 -1,552 34,552M230,552C265,552 289,579 289,612C289,647 264,673 230,673C195,673 170,646 170,612C170,579 194,552 229,552M190,487l-123,0l0,-362C67,17 110,-11 176,-11C196,-11 218,-8 229,-3l7,86C202,81 190,97 190,137z"
   id="glyph971" />
<glyph
   unicode="ΐ"
   horiz-adv-x="260"
   d="M190,487l-123,0l0,-362C67,17 110,-11 176,-11C196,-11 218,-8 229,-3l7,86C202,81 190,97 190,137M109,708l-22,-165l64,0l53,165M3,557C33,557 56,582 56,612C56,643 32,667 3,667C-28,667 -53,643 -53,612C-53,582 -29,557 2,557M272,557C304,557 326,582 326,612C326,643 303,667 273,667C242,667 218,643 218,612C218,582 241,557 271,557z"
   id="glyph973" />
<glyph
   unicode="ί"
   horiz-adv-x="260"
   d="M131,694l-49,-147l82,0l82,147M190,487l-124,0l0,-362C66,17 110,-11 176,-11C196,-11 218,-8 229,-3l7,86C202,81 190,97 190,137z"
   id="glyph975" />
<glyph
   unicode="ĩ"
   horiz-adv-x="256"
   d="M56,562C57,591 66,607 81,607C93,607 102,601 121,590C142,579 162,569 187,569C237,569 265,605 262,685l-59,0C200,651 192,642 176,642C164,642 150,651 134,660C113,671 94,681 70,681C23,681 -8,638 -6,562M190,0l0,487l-124,0l0,-487z"
   id="glyph977" />
<glyph
   unicode="j"
   horiz-adv-x="270"
   d="M-30,-213C31,-213 99,-196 142,-156C186,-112 205,-49 205,52l0,435l-123,0l0,-400C82,-19 73,-58 50,-82C30,-104 -2,-114 -42,-117M144,690C102,690 75,661 75,623C75,587 101,557 142,557C186,557 212,587 212,623C212,661 186,690 144,690z"
   id="glyph979" />
<glyph
   unicode="ĵ"
   horiz-adv-x="270"
   d="M-30,-213C31,-213 99,-196 142,-156C186,-112 205,-49 205,52l0,435l-123,0l0,-400C82,-19 73,-58 50,-82C30,-104 -2,-114 -42,-117M94,694l-97,-148l84,0l54,91l2,0l54,-91l84,0l-97,148z"
   id="glyph981" />
<glyph
   unicode="k"
   horiz-adv-x="509"
   d="M189,710l-123,0l0,-710l123,0l0,166l42,49l140,-215l151,0l-206,288l180,199l-148,0l-118,-157C217,313 203,292 191,273l-2,0z"
   id="glyph983" />
<glyph
   unicode="κ"
   horiz-adv-x="523"
   d="M302,265C377,342 447,416 510,482l0,5l-140,0C322,429 262,352 193,278l-3,0l0,124C190,445 183,477 174,487l-120,0C62,470 66,415 66,371l0,-371l124,0l0,207l7,0C236,205 270,162 312,100l63,-100l142,0l-83,128C392,192 349,249 302,261z"
   id="glyph985" />
<glyph
   unicode="ķ"
   horiz-adv-x="509"
   d="M189,710l-123,0l0,-710l123,0l0,166l42,49l140,-215l151,0l-206,288l180,199l-148,0l-118,-157C217,313 203,292 191,273l-2,0M191,-233C267,-229 337,-195 337,-116C337,-82 317,-54 297,-40l-87,-16C225,-70 241,-92 241,-116C241,-152 207,-173 172,-179z"
   id="glyph987" />
<glyph
   unicode="ĸ"
   horiz-adv-x="509"
   d="M189,487l-123,0l0,-487l123,0l0,166l42,49l140,-215l151,0l-206,288l180,199l-148,0l-118,-157C217,313 203,292 191,273l-2,0z"
   id="glyph989" />
<glyph
   unicode="l"
   horiz-adv-x="257"
   d="M66,0l124,0l0,710l-124,0z"
   id="glyph991" />
<glyph
   unicode="ĺ"
   horiz-adv-x="257"
   d="M66,0l124,0l0,710l-124,0M149,860l-88,-120l99,0l124,120z"
   id="glyph993" />
<glyph
   unicode="λ"
   horiz-adv-x="497"
   d="M357,0l131,0l-185,493C254,624 203,718 99,718C84,718 65,717 56,714l-11,-94C52,620 58,620 64,620C114,620 152,568 178,499C182,488 183,479 183,473C183,468 183,460 178,449l-173,-449l129,0l80,249C224,281 234,317 241,351l5,0C256,310 266,278 276,246z"
   id="glyph995" />
<glyph
   unicode="ľ"
   horiz-adv-x="266"
   d="M66,0l124,0l0,710l-124,0M284,507C300,523 349,564 349,643C349,679 332,709 315,720l-81,-15C248,689 259,664 259,639C259,599 243,567 228,543z"
   id="glyph997" />
<glyph
   unicode="ļ"
   horiz-adv-x="257"
   d="M66,0l124,0l0,710l-124,0M55,-233C131,-229 201,-195 201,-116C201,-82 181,-54 161,-40l-87,-16C89,-70 105,-92 105,-116C105,-152 71,-173 36,-179z"
   id="glyph999" />
<glyph
   unicode="ŀ"
   horiz-adv-x="317"
   d="M66,0l124,0l0,710l-124,0M288,335C319,335 343,362 343,395C343,429 319,455 288,455C255,455 230,429 230,395C230,362 254,335 287,335z"
   id="glyph1001" />
<glyph
   unicode="&lt;"
   horiz-adv-x="596"
   d="M61,230l474,-230l0,89l-376,176l0,2l376,175l0,90l-474,-230z"
   id="glyph1003" />
<glyph
   unicode="≤"
   horiz-adv-x="596"
   d="M534,109l0,86l-364,135l0,2l364,136l0,85l-472,-183l0,-77M534,0l0,74l-471,0l0,-74z"
   id="glyph1005" />
<glyph
   unicode="¬"
   horiz-adv-x="596"
   d="M40,412l0,-78l434,0l0,-221l82,0l0,299z"
   id="glyph1007" />
<glyph
   unicode="◊"
   horiz-adv-x="550"
   d="M508,325l-187,359l-92,0l-187,-359l187,-360l92,0M407,322l-117,-240C286,75 281,63 277,56l-2,0C273,64 267,75 263,82l-120,245l117,239C264,574 269,585 272,594l2,0C277,585 282,574 286,566z"
   id="glyph1009" />
<glyph
   unicode="ł"
   horiz-adv-x="267"
   d="M195,0l0,348l71,59l0,91l-71,-58l0,270l-123,0l0,-363l-67,-55l0,-91l67,55l0,-256z"
   id="glyph1011" />
<glyph
   unicode="m"
   horiz-adv-x="848"
   d="M66,0l120,0l0,288C186,302 188,316 193,328C204,362 235,398 281,398C338,398 365,350 365,282l0,-282l120,0l0,292C485,306 488,321 491,333C504,368 535,398 577,398C636,398 664,350 664,269l0,-269l120,0l0,287C784,443 702,498 621,498C581,498 550,488 523,469C500,455 480,435 463,408l-2,0C440,462 390,498 326,498C244,498 200,453 176,415l-3,0l-5,72l-106,0C65,445 66,398 66,342z"
   id="glyph1013" />
<glyph
   unicode=""
   horiz-adv-x="848"
   d="M382,698l-97,-148l84,0l54,91l2,0l54,-91l84,0l-97,148M66,0l120,0l0,288C186,302 188,316 193,328C204,362 235,398 281,398C338,398 365,350 365,282l0,-282l120,0l0,292C485,306 488,321 491,333C504,368 535,398 577,398C636,398 664,350 664,269l0,-269l120,0l0,287C784,443 702,498 621,498C581,498 550,488 523,469C500,455 480,435 463,408l-2,0C440,462 390,498 326,498C244,498 200,453 176,415l-3,0l-5,72l-106,0C65,445 66,398 66,342z"
   id="glyph1015" />
<glyph
   unicode="¯"
   horiz-adv-x="300"
   d="M31,655l0,-71l239,0l0,71z"
   id="glyph1017" />
<glyph
   unicode=""
   horiz-adv-x="300"
   d="M25,803l0,-69l251,0l0,69z"
   id="glyph1019" />
<glyph
   unicode="−"
   horiz-adv-x="596"
   d="M40,306l0,-78l516,0l0,78z"
   id="glyph1021" />
<glyph
   unicode="µ"
   horiz-adv-x="570"
   d="M396,71C408,15 445,-11 496,-11C515,-11 528,-9 540,-4l7,86C516,84 504,100 504,148l0,339l-123,0l0,-294C381,179 379,165 374,155C362,123 327,89 279,89C217,89 189,138 189,208l0,279l-123,0l0,-508C66,-95 70,-171 80,-198l109,0C181,-159 179,-71 179,-18l0,50C197,5 230,-8 265,-8C331,-8 375,34 393,71z"
   id="glyph1023" />
<glyph
   unicode="×"
   horiz-adv-x="596"
   d="M40,470l202,-207l-202,-207l56,-56l202,206l202,-206l56,56l-202,207l202,207l-56,56l-202,-207l-203,207z"
   id="glyph1025" />
<glyph
   unicode="n"
   horiz-adv-x="572"
   d="M66,0l124,0l0,286C190,300 191,315 195,326C208,363 242,398 291,398C358,398 384,345 384,275l0,-275l123,0l0,289C507,443 419,498 334,498C253,498 200,452 179,414l-3,0l-6,73l-108,0C65,445 66,398 66,342z"
   id="glyph1027" />
<glyph
   unicode=""
   horiz-adv-x="572"
   d="M244,698l-97,-148l84,0l54,91l2,0l54,-91l84,0l-97,148M66,0l124,0l0,286C190,300 191,315 195,326C208,363 242,398 291,398C358,398 384,345 384,275l0,-275l123,0l0,289C507,443 419,498 334,498C253,498 200,452 179,414l-3,0l-6,73l-108,0C65,445 66,398 66,342z"
   id="glyph1029" />
<glyph
   unicode="ń"
   horiz-adv-x="572"
   d="M311,698l-87,-148l85,0l123,148M66,0l124,0l0,286C190,300 191,315 195,326C208,363 242,398 291,398C358,398 384,345 384,275l0,-275l123,0l0,289C507,443 419,498 334,498C253,498 200,452 179,414l-3,0l-6,73l-108,0C65,445 66,398 66,342z"
   id="glyph1031" />
<glyph
   unicode="ŉ"
   horiz-adv-x="572"
   d="M66,0l124,0l0,286C190,300 191,315 195,326C208,363 242,398 291,398C358,398 384,345 384,275l0,-275l123,0l0,289C507,443 419,498 334,498C253,498 200,452 179,414l-3,0l-6,73l-108,0C65,445 66,398 66,342M67,530C85,544 137,585 137,654C137,691 119,718 104,728l-83,-21C35,693 46,672 46,650C46,615 30,589 13,565z"
   id="glyph1033" />
<glyph
   unicode="ň"
   horiz-adv-x="572"
   d="M329,550l97,148l-84,0l-55,-91l-2,0l-54,91l-85,0l98,-148M66,0l124,0l0,286C190,300 191,315 195,326C208,363 242,398 291,398C358,398 384,345 384,275l0,-275l123,0l0,289C507,443 419,498 334,498C253,498 200,452 179,414l-3,0l-6,73l-108,0C65,445 66,398 66,342z"
   id="glyph1035" />
<glyph
   unicode="ņ"
   horiz-adv-x="572"
   d="M66,0l124,0l0,286C190,300 191,315 195,326C208,363 242,398 291,398C358,398 384,345 384,275l0,-275l123,0l0,289C507,443 419,498 334,498C253,498 200,452 179,414l-3,0l-6,73l-108,0C65,445 66,398 66,342M222,-232C298,-228 368,-194 368,-115C368,-81 348,-53 328,-39l-87,-16C256,-69 272,-91 272,-115C272,-151 238,-172 203,-178z"
   id="glyph1037" />
<glyph
   unicode="9"
   horiz-adv-x="536"
   d="M93,-9C111,-10 139,-10 167,-7C254,-1 332,29 389,82C456,146 502,245 502,384C502,542 421,661 270,661C131,661 35,553 35,429C35,309 119,227 233,227C295,227 341,248 374,285l2,-1C364,223 335,174 293,140C257,111 209,94 161,90C131,87 112,86 93,88M264,570C344,570 377,494 376,406C376,389 373,379 369,371C350,340 314,317 264,317C196,317 158,369 157,436C157,515 202,570 263,570z"
   id="glyph1039" />
<glyph
   unicode=""
   horiz-adv-x="344"
   d="M58,-4C68,-4 85,-5 100,-3C162,0 215,16 254,51C295,88 322,148 322,228C322,318 273,395 171,395C85,395 22,333 22,256C22,181 78,135 147,135C184,135 213,148 230,166l2,-1C225,134 207,107 181,89C158,74 128,66 98,63C84,62 69,62 58,64M170,330C215,330 234,290 234,245C234,236 232,229 229,224C219,208 199,195 171,195C132,195 110,225 110,260C110,301 136,330 169,330z"
   id="glyph1041" />
<glyph
   unicode=""
   horiz-adv-x="539"
   d="M93,-9C111,-10 139,-10 167,-7C254,-1 332,29 389,82C456,146 502,245 502,384C502,542 421,661 270,661C131,661 35,553 35,429C35,309 119,227 233,227C295,227 341,248 374,285l2,-1C364,223 335,174 293,140C257,111 209,94 161,90C131,87 112,86 93,88M264,570C344,570 377,494 376,406C376,389 373,379 369,371C350,340 314,317 264,317C196,317 158,369 157,436C157,515 202,570 263,570z"
   id="glyph1043" />
<glyph
   unicode="₉"
   horiz-adv-x="344"
   d="M58,-151C68,-151 85,-152 100,-150C162,-147 215,-131 254,-96C295,-59 322,1 322,81C322,171 273,248 171,248C85,248 22,186 22,109C22,34 78,-12 147,-12C184,-12 213,1 230,19l2,-1C225,-13 207,-40 181,-58C158,-73 128,-81 98,-84C84,-85 69,-85 58,-83M170,183C215,183 234,143 234,98C234,89 232,82 229,77C219,61 199,48 171,48C132,48 110,78 110,113C110,154 136,183 169,183z"
   id="glyph1045" />
<glyph
   unicode=""
   horiz-adv-x="344"
   d="M58,262C68,262 85,261 100,263C162,266 215,282 254,317C295,354 322,414 322,494C322,584 273,661 171,661C85,661 22,599 22,522C22,447 78,401 147,401C184,401 213,414 230,432l2,-1C225,400 207,373 181,355C158,340 128,332 98,329C84,328 69,328 58,330M170,596C215,596 234,556 234,511C234,502 232,495 229,490C219,474 199,461 171,461C132,461 110,491 110,526C110,567 136,596 169,596z"
   id="glyph1047" />
<glyph
   unicode=""
   horiz-adv-x="537"
   d="M82,-118C314,-115 496,10 496,253C496,403 403,502 269,502C139,502 38,409 38,282C38,166 121,90 227,90C288,90 339,119 360,147l2,-1C334,46 243,-23 74,-29M264,174C207,174 160,213 160,290C160,369 213,409 265,409C326,409 374,356 374,281C374,258 369,238 361,227C344,197 304,174 265,174z"
   id="glyph1049" />
<glyph
   unicode="⁹"
   horiz-adv-x="344"
   d="M58,439C68,439 85,438 100,440C162,443 215,459 254,494C295,531 322,591 322,671C322,761 273,838 171,838C85,838 22,776 22,699C22,624 78,578 147,578C184,578 213,591 230,609l2,-1C225,577 207,550 181,532C158,517 128,509 98,506C84,505 69,505 58,507M170,773C215,773 234,733 234,688C234,679 232,672 229,667C219,651 199,638 171,638C132,638 110,668 110,703C110,744 136,773 169,773z"
   id="glyph1051" />
<glyph
   unicode=""
   horiz-adv-x="547"
   d="M87,-118C319,-115 501,10 501,253C501,403 408,502 274,502C144,502 43,409 43,282C43,166 126,90 232,90C293,90 344,119 365,147l2,-1C339,46 248,-23 79,-29M269,174C212,174 165,213 165,290C165,369 218,409 270,409C331,409 379,356 379,281C379,258 374,238 366,227C349,197 309,174 270,174z"
   id="glyph1053" />
<glyph
   unicode="≠"
   horiz-adv-x="596"
   d="M556,126l0,78l-259,0l81,128l178,0l0,78l-128,0l71,111l-83,0l-68,-111l-308,0l0,-78l258,0l-82,-128l-176,0l0,-78l126,0l-71,-110l83,0l69,110z"
   id="glyph1055" />
<glyph
   unicode="ñ"
   horiz-adv-x="572"
   d="M214,562C215,591 224,607 239,607C251,607 260,601 279,590C300,579 320,569 345,569C395,569 423,605 420,685l-59,0C358,651 350,642 334,642C322,642 308,651 292,660C271,671 252,681 228,681C181,681 150,638 152,562M66,0l124,0l0,286C190,300 191,315 195,326C208,363 242,398 291,398C358,398 384,345 384,275l0,-275l123,0l0,289C507,443 419,498 334,498C253,498 200,452 179,414l-3,0l-6,73l-108,0C65,445 66,398 66,342z"
   id="glyph1057" />
<glyph
   unicode="ν"
   horiz-adv-x="492"
   d="M1,487l173,-487l119,0C382,149 470,312 470,450C470,463 469,476 467,487l-115,0C352,473 352,460 352,445C352,338 290,198 250,116l-4,0C234,158 225,197 211,240l-78,247z"
   id="glyph1059" />
<glyph
   unicode="#"
   horiz-adv-x="526"
   d="M207,264l17,127l97,0l-17,-127M169,0l26,187l96,0l-26,-187l77,0l25,187l97,0l0,77l-84,0l17,127l93,0l0,77l-81,0l25,182l-75,0l-26,-182l-97,0l25,182l-75,0l-26,-182l-97,0l0,-77l86,0l-18,-127l-94,0l0,-78l82,0l-26,-186z"
   id="glyph1061" />
<glyph
   unicode=""
   horiz-adv-x="547"
   d="M219,235l17,127l97,0l-17,-127M185,-6l22,164l96,0l-22,-164l76,0l22,164l97,0l0,77l-84,0l17,127l93,0l0,77l-81,0l22,159l-76,0l-22,-159l-97,0l21,159l-75,0l-22,-159l-97,0l0,-77l86,0l-18,-127l-94,0l0,-77l82,0l-23,-164z"
   id="glyph1063" />
<glyph
   unicode="o"
   horiz-adv-x="564"
   d="M287,498C140,498 35,400 35,240C35,84 141,-11 279,-11C403,-11 529,69 529,248C529,396 432,498 287,498M284,408C368,408 402,321 402,245C402,147 353,78 283,78C208,78 162,149 162,243C162,324 197,408 284,408z"
   id="glyph1065" />
<glyph
   unicode="ó"
   horiz-adv-x="564"
   d="M308,698l-87,-148l85,0l123,148M287,498C140,498 35,400 35,240C35,84 141,-11 279,-11C403,-11 529,69 529,248C529,396 432,498 287,498M284,408C368,408 402,321 402,245C402,147 353,78 283,78C208,78 162,149 162,243C162,324 197,408 284,408z"
   id="glyph1067" />
<glyph
   unicode="ŏ"
   horiz-adv-x="564"
   d="M150,688C150,616 191,553 282,553C365,553 414,608 414,688l-67,0C345,655 325,623 281,623C244,623 222,651 217,688M287,498C140,498 35,400 35,240C35,84 141,-11 279,-11C403,-11 529,69 529,248C529,396 432,498 287,498M284,408C368,408 402,321 402,245C402,147 353,78 283,78C208,78 162,149 162,243C162,324 197,408 284,408z"
   id="glyph1069" />
<glyph
   unicode="ô"
   horiz-adv-x="564"
   d="M240,698l-97,-148l84,0l54,91l2,0l54,-91l84,0l-97,148M287,498C140,498 35,400 35,240C35,84 141,-11 279,-11C403,-11 529,69 529,248C529,396 432,498 287,498M284,408C368,408 402,321 402,245C402,147 353,78 283,78C208,78 162,149 162,243C162,324 197,408 284,408z"
   id="glyph1071" />
<glyph
   unicode="ö"
   horiz-adv-x="564"
   d="M183,563C218,563 243,591 243,624C243,660 217,686 184,686C148,686 121,659 121,624C121,591 147,563 182,563M382,563C417,563 442,591 442,624C442,660 417,686 382,686C347,686 321,659 321,624C321,591 346,563 381,563M287,498C140,498 35,400 35,240C35,84 141,-11 279,-11C403,-11 529,69 529,248C529,396 432,498 287,498M284,408C368,408 402,321 402,245C402,147 353,78 283,78C208,78 162,149 162,243C162,324 197,408 284,408z"
   id="glyph1073" />
<glyph
   unicode="œ"
   horiz-adv-x="866"
   d="M830,211C832,221 834,241 834,262C834,366 784,498 629,498C557,498 493,464 455,398l-2,0C421,463 352,498 276,498C138,498 35,397 35,242C35,85 138,-11 268,-11C342,-11 414,20 453,88l3,0C497,17 564,-11 641,-11C691,-11 762,-2 810,24l-19,85C754,94 717,82 658,82C577,82 514,129 512,211M281,408C362,408 397,327 397,244C397,145 353,78 280,78C208,78 162,150 162,243C162,318 191,408 280,408M511,296C514,345 545,414 618,414C702,414 719,340 718,296z"
   id="glyph1075" />
<glyph
   unicode="˛"
   horiz-adv-x="300"
   d="M100,3C82,-19 52,-68 52,-115C52,-180 93,-213 156,-213C185,-213 224,-204 248,-185l-18,60C219,-130 203,-134 185,-134C153,-134 133,-113 133,-83C133,-50 159,-15 171,3z"
   id="glyph1077" />
<glyph
   unicode=""
   horiz-adv-x="300"
   d="M100,3C82,-19 52,-68 52,-115C52,-180 93,-213 156,-213C185,-213 224,-204 248,-185l-18,60C219,-130 203,-134 185,-134C153,-134 133,-113 133,-83C133,-50 159,-15 171,3z"
   id="glyph1079" />
<glyph
   unicode="ò"
   horiz-adv-x="564"
   d="M138,698l122,-148l86,0l-87,148M287,498C140,498 35,400 35,240C35,84 141,-11 279,-11C403,-11 529,69 529,248C529,396 432,498 287,498M284,408C368,408 402,321 402,245C402,147 353,78 283,78C208,78 162,149 162,243C162,324 197,408 284,408z"
   id="glyph1081" />
<glyph
   unicode="ơ"
   horiz-adv-x="573"
   d="M284,408C368,408 402,321 402,245C402,147 353,78 283,78C208,78 162,149 162,243C162,324 197,408 284,408M474,561C485,541 493,519 493,496C493,470 481,458 456,458C429,458 398,477 373,485C347,493 319,498 287,498C140,498 35,400 35,240C35,84 141,-11 279,-11C403,-11 529,69 529,248C529,307 514,356 488,394C549,396 583,433 583,491C583,523 575,553 563,576z"
   id="glyph1083" />
<glyph
   unicode="ő"
   horiz-adv-x="564"
   d="M217,697l-71,-143l72,0l104,143M377,697l-70,-143l71,0l104,143M287,498C140,498 35,400 35,240C35,84 141,-11 279,-11C403,-11 529,69 529,248C529,396 432,498 287,498M284,408C368,408 402,321 402,245C402,147 353,78 283,78C208,78 162,149 162,243C162,324 197,408 284,408z"
   id="glyph1085" />
<glyph
   unicode="ō"
   horiz-adv-x="564"
   d="M163,655l0,-71l239,0l0,71M287,498C140,498 35,400 35,240C35,84 141,-11 279,-11C403,-11 529,69 529,248C529,396 432,498 287,498M284,408C368,408 402,321 402,245C402,147 353,78 283,78C208,78 162,149 162,243C162,324 197,408 284,408z"
   id="glyph1087" />
<glyph
   unicode="ω"
   horiz-adv-x="716"
   d="M415,369l-116,0l2,-184C302,133 276,92 239,92C200,92 155,139 155,254C155,350 187,437 230,488l0,3l-112,0C77,447 35,359 35,248C35,69 130,-11 223,-11C283,-11 328,22 353,70l4,0C378,20 428,-11 486,-11C589,-11 680,81 680,259C680,368 639,455 600,491l-114,0l0,-3C532,440 560,351 560,263C560,150 520,92 476,92C437,92 412,133 412,185z"
   id="glyph1089" />
<glyph
   unicode="ώ"
   horiz-adv-x="716"
   d="M360,694l-49,-148l81,0l82,148M415,369l-116,0l2,-184C302,133 276,92 239,92C200,92 155,139 155,254C155,350 187,437 230,488l0,3l-112,0C77,447 35,359 35,248C35,69 130,-11 223,-11C283,-11 328,22 353,70l4,0C378,20 428,-11 486,-11C589,-11 681,81 681,259C681,368 640,455 600,491l-114,0l0,-3C532,440 560,351 560,263C560,150 520,92 476,92C438,92 412,133 412,185z"
   id="glyph1091" />
<glyph
   unicode="ο"
   horiz-adv-x="564"
   d="M280,-11C403,-11 529,69 529,248C529,396 432,498 287,498C140,498 35,400 35,240C35,84 141,-11 279,-11M282,78C208,78 162,149 162,243C162,324 197,408 284,408C368,408 402,321 402,245C402,147 353,78 283,78z"
   id="glyph1093" />
<glyph
   unicode="ό"
   horiz-adv-x="564"
   d="M285,694l-49,-148l81,0l82,148M280,-11C403,-11 529,69 529,248C529,396 432,498 287,498C140,498 35,400 35,240C35,84 141,-11 279,-11M282,78C208,78 162,149 162,243C162,324 197,408 284,408C368,408 402,321 402,245C402,147 353,78 283,78z"
   id="glyph1095" />
<glyph
   unicode="1"
   horiz-adv-x="536"
   d="M236,0l119,0l0,650l-103,0l-158,-78l21,-93l119,60l2,0z"
   id="glyph1097" />
<glyph
   unicode=""
   horiz-adv-x="275"
   d="M209,0l0,390l-84,0l-104,-46l14,-69l76,35l2,0l0,-310z"
   id="glyph1099" />
<glyph
   unicode=""
   horiz-adv-x="356"
   d="M154,0l119,0l0,650l-103,0l-158,-78l21,-93l119,60l2,0z"
   id="glyph1101" />
<glyph
   unicode="₁"
   horiz-adv-x="275"
   d="M209,-147l0,390l-84,0l-104,-46l14,-69l76,35l2,0l0,-310z"
   id="glyph1103" />
<glyph
   unicode=""
   horiz-adv-x="275"
   d="M209,266l0,390l-84,0l-104,-46l14,-69l76,35l2,0l0,-310z"
   id="glyph1105" />
<glyph
   unicode=""
   horiz-adv-x="390"
   d="M298,0l0,487l-100,0l-172,-76l21,-91l130,60l2,0l0,-380z"
   id="glyph1107" />
<glyph
   unicode="¹"
   horiz-adv-x="275"
   d="M209,443l0,390l-84,0l-104,-46l14,-69l76,35l2,0l0,-310z"
   id="glyph1109" />
<glyph
   unicode=""
   horiz-adv-x="547"
   d="M392,0l0,487l-101,0l-217,-87l18,-91l179,75l2,0l0,-384z"
   id="glyph1111" />
<glyph
   unicode="½"
   horiz-adv-x="799"
   d="M213,266l0,390l-84,0l-103,-46l13,-69l77,35l1,0l0,-310M207,-11l373,672l-71,0l-373,-672M465,0l290,0l0,72l-157,0l0,3l28,23C692,155 748,205 748,278C748,339 702,395 605,395C549,395 500,376 470,353l26,-63C516,305 547,320 581,320C625,320 647,295 647,262C647,215 606,176 527,104l-62,-56z"
   id="glyph1113" />
<glyph
   unicode="¼"
   horiz-adv-x="799"
   d="M226,266l0,390l-83,0l-104,-46l14,-69l76,35l1,0l0,-310M228,-11l374,672l-71,0l-373,-672M707,0l0,96l56,0l0,63l-56,0l0,235l-106,0l-181,-246l0,-52l198,0l0,-96M618,159l-106,0l-2,1l74,101C596,279 606,299 619,322l2,0C620,300 618,277 618,252z"
   id="glyph1115" />
<glyph
   unicode="ª"
   horiz-adv-x="363"
   d="M325,266C321,287 319,315 319,344l0,107C319,524 286,591 181,591C129,591 84,576 57,559l19,-55C98,520 130,530 165,530C224,530 232,493 232,481l0,-8C109,474 33,432 33,358C33,304 72,261 138,261C182,261 216,280 238,303l2,0l6,-37M234,377C234,370 232,361 227,353C217,335 194,320 169,320C142,320 119,337 119,364C119,409 176,422 234,421z"
   id="glyph1117" />
<glyph
   unicode="º"
   horiz-adv-x="372"
   d="M187,591C94,591 21,525 21,423C21,325 93,261 185,261C267,261 350,314 351,429C351,522 287,591 188,591M185,528C237,528 261,472 261,426C261,366 231,324 186,324C142,324 110,368 110,425C110,471 132,528 184,528z"
   id="glyph1119" />
<glyph
   unicode="ø"
   horiz-adv-x="564"
   d="M283,498C140,498 35,399 35,242C35,159 65,94 116,51l-44,-63l45,-36l46,66C198,-2 239,-11 283,-11C404,-11 529,70 529,246C529,325 501,390 451,435l44,65l-47,33l-44,-65C368,488 327,498 284,498M182,145l-2,0C161,174 154,209 154,243C154,320 190,408 281,408C309,408 332,400 349,385M383,338l3,0C404,307 410,270 410,243C410,146 360,78 281,78C257,78 235,85 217,101z"
   id="glyph1121" />
<glyph
   unicode="ǿ"
   horiz-adv-x="564"
   d="M308,698l-87,-148l85,0l123,148M283,498C140,498 35,399 35,242C35,159 65,94 116,51l-44,-63l45,-36l46,66C198,-2 239,-11 283,-11C404,-11 529,70 529,246C529,325 501,390 451,435l44,65l-47,33l-44,-65C368,488 327,498 284,498M182,145l-2,0C161,174 154,209 154,243C154,320 190,408 281,408C309,408 332,400 349,385M383,338l3,0C404,307 410,270 410,243C410,146 360,78 281,78C257,78 235,85 217,101z"
   id="glyph1123" />
<glyph
   unicode="õ"
   horiz-adv-x="564"
   d="M210,562C211,591 220,607 235,607C247,607 256,601 275,590C296,579 316,569 341,569C391,569 419,605 416,685l-59,0C354,651 346,642 330,642C318,642 304,651 288,660C267,671 248,681 224,681C177,681 146,638 148,562M287,498C140,498 35,400 35,240C35,84 141,-11 279,-11C403,-11 529,69 529,248C529,396 432,498 287,498M284,408C368,408 402,321 402,245C402,147 353,78 283,78C208,78 162,149 162,243C162,324 197,408 284,408z"
   id="glyph1125" />
<glyph
   unicode="p"
   horiz-adv-x="585"
   d="M66,-198l123,0l0,252l2,0C216,15 267,-11 328,-11C439,-11 550,74 550,250C550,402 457,498 345,498C271,498 214,467 178,412l-2,0l-6,75l-108,0C64,441 66,389 66,325M189,279C189,289 191,300 194,310C206,364 253,401 304,401C383,401 425,331 425,245C425,149 379,84 301,84C249,84 205,120 193,170C190,181 189,192 189,204z"
   id="glyph1127" />
<glyph
   unicode="¶"
   horiz-adv-x="529"
   d="M298,-48l0,646l71,0l0,-646l81,0l0,715C422,674 376,677 319,677C87,677 31,558 32,452C34,324 143,264 210,264l7,0l0,-312z"
   id="glyph1129" />
<glyph
   unicode="("
   horiz-adv-x="301"
   d="M183,693C126,612 63,481 62,286C62,92 126,-38 183,-118l90,0C210,-22 160,109 160,286C160,466 209,598 273,693z"
   id="glyph1131" />
<glyph
   unicode=""
   horiz-adv-x="301"
   d="M183,732C126,651 63,520 62,325C62,131 126,1 183,-79l90,0C210,17 160,148 160,325C160,505 209,637 273,732z"
   id="glyph1133" />
<glyph
   unicode=""
   horiz-adv-x="193"
   d="M113,425C81,380 41,300 41,185C41,70 80,-9 113,-55l65,0C144,1 113,79 113,185C113,290 145,372 178,425z"
   id="glyph1135" />
<glyph
   unicode="₍"
   horiz-adv-x="193"
   d="M113,278C81,233 41,153 41,38C41,-77 80,-156 113,-202l65,0C144,-146 113,-68 113,38C113,143 145,225 178,278z"
   id="glyph1137" />
<glyph
   unicode=""
   horiz-adv-x="193"
   d="M113,691C81,646 41,566 41,451C41,336 80,257 113,211l65,0C144,267 113,345 113,451C113,556 145,638 178,691z"
   id="glyph1139" />
<glyph
   unicode="⁽"
   horiz-adv-x="193"
   d="M113,868C81,823 41,743 41,628C41,513 80,434 113,388l65,0C144,444 113,522 113,628C113,733 145,815 178,868z"
   id="glyph1141" />
<glyph
   unicode=")"
   horiz-adv-x="301"
   d="M117,-118C175,-37 238,92 239,287C239,483 175,613 117,693l-89,0C91,597 140,466 140,288C140,110 91,-23 28,-118z"
   id="glyph1143" />
<glyph
   unicode=""
   horiz-adv-x="301"
   d="M117,-79C175,2 238,131 239,326C239,522 175,652 117,732l-89,0C91,636 140,505 140,327C140,149 91,16 28,-79z"
   id="glyph1145" />
<glyph
   unicode=""
   horiz-adv-x="193"
   d="M80,-55C113,-7 153,71 153,185C153,301 113,379 80,425l-64,0C50,370 81,290 81,185C81,81 49,2 16,-55z"
   id="glyph1147" />
<glyph
   unicode="₎"
   horiz-adv-x="193"
   d="M80,-202C113,-154 153,-76 153,38C153,154 113,232 80,278l-64,0C50,223 81,143 81,38C81,-66 49,-145 16,-202z"
   id="glyph1149" />
<glyph
   unicode=""
   horiz-adv-x="193"
   d="M80,211C113,259 153,337 153,451C153,567 113,645 80,691l-64,0C50,636 81,556 81,451C81,347 49,268 16,211z"
   id="glyph1151" />
<glyph
   unicode="⁾"
   horiz-adv-x="193"
   d="M80,388C113,436 153,514 153,628C153,744 113,822 80,868l-64,0C50,813 81,733 81,628C81,524 49,445 16,388z"
   id="glyph1153" />
<glyph
   unicode="∂"
   horiz-adv-x="375"
   d="M89,591C113,607 158,629 224,629C322,629 400,541 400,396C400,388 400,379 400,371l-1,0C378,406 325,452 244,452C115,452 24,343 24,206C24,102 91,-11 235,-11C387,-11 520,120 520,372C520,597 392,729 238,729C145,729 83,695 52,674M247,88C189,88 148,132 148,206C148,291 201,356 270,356C331,356 374,312 387,272C376,177 322,88 248,88z"
   id="glyph1155" />
<glyph
   unicode="%"
   horiz-adv-x="840"
   d="M199,661C99,661 28,580 28,457C29,332 103,261 194,261C283,261 363,331 363,468C363,584 302,661 200,661M197,592C250,592 270,534 270,462C270,383 246,331 197,331C148,331 121,386 122,461C122,534 147,592 196,592M265,-12l378,673l-70,0l-378,-673M647,392C548,392 477,310 477,188C477,62 552,-8 642,-8C732,-8 811,62 811,198C811,315 750,392 648,392M645,322C698,322 718,265 718,192C718,113 695,61 645,61C596,61 569,117 570,191C570,264 595,322 644,322z"
   id="glyph1157" />
<glyph
   unicode=""
   horiz-adv-x="858"
   d="M194,610C94,610 23,529 23,407C24,281 98,210 189,210C278,210 358,280 358,417C358,534 296,610 195,610M191,541C245,541 265,483 265,411C265,332 241,280 192,280C143,280 116,335 117,410C117,483 141,541 190,541M289,-12l350,625l-70,0l-350,-625M670,392C571,392 500,310 500,188C500,62 575,-8 665,-8C755,-8 835,62 835,198C835,315 773,392 671,392M668,322C721,322 741,265 741,192C741,113 718,61 668,61C620,61 593,117 593,191C594,264 618,322 667,322z"
   id="glyph1159" />
<glyph
   unicode="."
   horiz-adv-x="236"
   d="M127,-11C173,-11 203,23 203,68C203,115 172,147 127,147C83,147 51,114 51,68C51,23 82,-11 126,-11z"
   id="glyph1161" />
<glyph
   unicode=""
   horiz-adv-x="153"
   d="M76,-6C110,-6 132,18 132,50C132,83 110,105 77,105C44,105 22,83 22,50C22,18 44,-6 75,-6z"
   id="glyph1163" />
<glyph
   unicode=""
   horiz-adv-x="153"
   d="M76,-153C110,-153 132,-129 132,-97C132,-64 110,-42 77,-42C44,-42 22,-64 22,-97C22,-129 44,-153 75,-153z"
   id="glyph1165" />
<glyph
   unicode=""
   horiz-adv-x="153"
   d="M76,260C110,260 132,284 132,316C132,349 110,371 77,371C44,371 22,349 22,316C22,284 44,260 75,260z"
   id="glyph1167" />
<glyph
   unicode=""
   horiz-adv-x="153"
   d="M76,437C110,437 132,461 132,493C132,526 110,548 77,548C44,548 22,526 22,493C22,461 44,437 75,437z"
   id="glyph1169" />
<glyph
   unicode="·"
   horiz-adv-x="236"
   d="M118,182C164,182 194,215 194,261C194,308 163,340 118,340C74,340 42,307 42,261C42,215 73,182 117,182z"
   id="glyph1171" />
<glyph
   unicode=""
   horiz-adv-x="236"
   d="M118,257C164,257 194,290 194,336C194,383 163,415 118,415C74,415 42,382 42,336C42,290 73,257 117,257z"
   id="glyph1173" />
<glyph
   unicode="‰"
   horiz-adv-x="1227"
   d="M199,661C99,661 28,580 28,457C29,332 103,261 194,261C283,261 363,331 363,468C363,584 302,661 200,661M197,592C250,592 270,534 270,462C270,383 246,331 197,331C148,331 121,386 122,461C122,534 147,592 196,592M265,-12l378,673l-70,0l-378,-673M647,392C548,392 477,310 477,188C477,62 552,-8 642,-8C732,-8 811,62 811,198C811,315 750,392 648,392M645,322C698,322 718,265 718,192C718,113 695,61 645,61C596,61 569,117 570,191C570,264 595,322 644,322M1033,392C934,392 863,310 863,188C863,62 938,-8 1028,-8C1118,-8 1198,62 1198,198C1198,315 1136,392 1034,392M1031,322C1084,322 1104,265 1104,192C1104,113 1081,61 1031,61C982,61 955,117 956,191C956,264 981,322 1030,322z"
   id="glyph1175" />
<glyph
   unicode="φ"
   horiz-adv-x="680"
   d="M208,500C139,475 35,387 35,247C35,76 162,0 287,-10l0,-188l111,0l0,188C519,2 644,89 644,255C644,403 538,495 433,497C358,499 287,452 287,336l0,-260C203,91 158,161 158,250C158,342 209,403 255,434M397,359C397,394 411,411 431,411C477,411 527,343 527,253C527,151 474,87 397,75z"
   id="glyph1177" />
<glyph
   unicode="π"
   horiz-adv-x="580"
   d="M547,393l12,94l-393,0C78,487 29,475 8,457l14,-72C47,391 81,393 114,393C113,278 87,96 54,0l118,0C205,78 230,273 233,393l129,0l0,-254C362,70 368,17 379,0l118,0C490,28 484,77 484,149l0,244z"
   id="glyph1179" />
<glyph
   unicode="+"
   horiz-adv-x="596"
   d="M257,532l0,-226l-217,0l0,-78l217,0l0,-228l82,0l0,228l217,0l0,78l-217,0l0,226z"
   id="glyph1181" />
<glyph
   unicode="±"
   horiz-adv-x="596"
   d="M257,576l0,-183l-217,0l0,-78l217,0l0,-187l82,0l0,187l217,0l0,78l-217,0l0,183M40,78l0,-78l516,0l0,78z"
   id="glyph1183" />
<glyph
   unicode="∏"
   horiz-adv-x="642"
   d="M631,549l0,101l-621,0l0,-101l93,0l0,-639l115,0l0,639l205,0l0,-639l115,0l0,639z"
   id="glyph1185" />
<glyph
   unicode="ψ"
   horiz-adv-x="694"
   d="M299,-198l111,0l0,187C589,0 653,149 653,296C653,386 633,452 613,487l-111,0C514,465 536,387 536,287C536,170 489,79 409,76l0,538l-110,0l0,-538C235,81 179,124 179,259l0,135C179,443 175,475 166,487l-112,0C60,458 61,415 61,368l0,-119C61,55 173,-3 299,-11z"
   id="glyph1187" />
<glyph
   unicode="q"
   horiz-adv-x="581"
   d="M392,-198l123,0l0,544C515,397 517,443 519,487l-119,0l-3,-65l-2,1C369,469 321,498 253,498C149,498 35,414 35,236C35,84 130,-11 239,-11C310,-11 361,20 390,67l2,0M392,205C392,193 390,179 386,167C372,118 331,86 281,86C203,86 160,153 160,242C160,334 205,401 284,401C339,401 378,362 389,316C391,307 392,296 392,286z"
   id="glyph1189" />
<glyph
   unicode="?"
   horiz-adv-x="428"
   d="M248,207l-1,21C245,276 261,317 300,363C343,412 387,462 387,534C387,614 330,686 206,686C143,686 85,668 49,645l30,-88C104,576 144,587 179,587C235,586 261,558 261,516C261,477 236,442 198,396C151,340 133,285 138,232l2,-25M191,-11C237,-11 267,23 267,67C266,113 236,145 191,145C147,145 115,113 115,67C115,23 146,-11 190,-11z"
   id="glyph1191" />
<glyph
   unicode="¿"
   horiz-adv-x="428"
   d="M243,491C198,491 167,459 167,413C167,368 198,335 243,335C289,335 319,368 319,413C319,459 288,491 244,491M187,274l0,-21C189,205 174,164 134,118C91,69 48,19 48,-53C48,-133 105,-205 229,-205C292,-205 350,-187 385,-165l-29,89C330,-95 290,-107 256,-107C200,-106 173,-77 173,-35C173,3 198,39 236,84C283,141 301,196 297,248l-2,26z"
   id="glyph1193" />
<glyph
   unicode=""
   horiz-adv-x="428"
   d="M243,683C198,683 167,651 167,605C167,560 198,527 243,527C289,527 319,560 319,605C319,651 288,683 244,683M187,466l0,-21C189,397 174,356 134,310C91,261 48,211 48,139C48,59 105,-13 229,-13C292,-13 350,5 385,27l-29,89C330,97 290,85 256,85C200,86 173,115 173,157C173,195 198,231 236,276C283,333 301,388 297,440l-2,26z"
   id="glyph1195" />
<glyph
   unicode="&quot;"
   horiz-adv-x="370"
   d="M42,692l20,-257l73,0l20,257M215,692l20,-257l73,0l20,257z"
   id="glyph1197" />
<glyph
   unicode="„"
   horiz-adv-x="412"
   d="M93,-103C131,-41 174,62 201,153l-119,-10C70,63 44,-37 17,-110M267,-103C305,-41 348,62 376,153l-119,-10C244,63 218,-37 192,-110z"
   id="glyph1199" />
<glyph
   unicode="“"
   horiz-adv-x="409"
   d="M148,439C161,519 187,619 213,692l-75,-7C100,623 57,520 30,429M323,439C335,519 361,619 388,692l-76,-7C274,623 231,520 204,429z"
   id="glyph1201" />
<glyph
   unicode="”"
   horiz-adv-x="409"
   d="M94,683C81,602 55,502 29,429l76,8C142,499 185,601 213,692M268,683C256,602 229,502 203,429l76,8C316,499 360,601 387,692z"
   id="glyph1203" />
<glyph
   unicode="‘"
   horiz-adv-x="236"
   d="M149,439C162,519 188,619 214,692l-76,-7C101,623 58,520 30,429z"
   id="glyph1205" />
<glyph
   unicode="’"
   horiz-adv-x="236"
   d="M94,683C82,602 56,502 30,429l75,8C143,499 186,601 213,692z"
   id="glyph1207" />
<glyph
   unicode="‚"
   horiz-adv-x="236"
   d="M94,-103C131,-41 175,62 202,153l-119,-10C71,63 45,-37 18,-110z"
   id="glyph1209" />
<glyph
   unicode="'"
   horiz-adv-x="198"
   d="M42,692l20,-257l73,0l20,257z"
   id="glyph1211" />
<glyph
   unicode="r"
   horiz-adv-x="356"
   d="M66,0l123,0l0,252C189,266 191,279 193,290C204,345 244,383 303,383C318,383 329,381 339,379l0,116C329,497 322,498 310,498C258,498 201,463 177,394l-4,0l-4,93l-107,0C65,443 66,396 66,330z"
   id="glyph1213" />
<glyph
   unicode="ŕ"
   horiz-adv-x="356"
   d="M214,698l-87,-148l85,0l123,148M66,0l123,0l0,252C189,266 191,279 193,290C204,345 244,383 303,383C318,383 329,381 339,379l0,116C329,497 322,498 310,498C258,498 201,463 177,394l-4,0l-4,93l-107,0C65,443 66,396 66,330z"
   id="glyph1215" />
<glyph
   unicode="√"
   horiz-adv-x="577"
   d="M597,834l-86,0l-173,-726C331,80 326,52 322,32l-2,0C315,53 308,81 299,106l-114,319l-159,-65l22,-59l77,31l158,-418l85,0z"
   id="glyph1217" />
<glyph
   unicode="ř"
   horiz-adv-x="356"
   d="M235,550l97,148l-84,0l-55,-91l-2,0l-54,91l-85,0l98,-148M66,0l123,0l0,252C189,266 191,279 193,290C204,345 244,383 303,383C318,383 329,381 339,379l0,116C329,497 322,498 310,498C258,498 201,463 177,394l-4,0l-4,93l-107,0C65,443 66,396 66,330z"
   id="glyph1219" />
<glyph
   unicode="ŗ"
   horiz-adv-x="356"
   d="M66,0l123,0l0,252C189,266 191,279 193,290C204,345 244,383 303,383C318,383 329,381 339,379l0,116C329,497 322,498 310,498C258,498 201,463 177,394l-4,0l-4,93l-107,0C65,443 66,396 66,330M63,-233C139,-229 209,-195 209,-116C209,-82 189,-54 169,-40l-87,-16C97,-70 113,-92 113,-116C113,-152 79,-173 44,-179z"
   id="glyph1221" />
<glyph
   unicode="®"
   horiz-adv-x="441"
   d="M197,493l17,0C232,493 241,486 244,469C248,452 251,438 256,432l49,0C302,438 298,448 293,471C288,494 279,506 262,512l0,2C283,520 298,534 298,551C298,567 291,579 280,586C269,594 254,599 220,599C190,599 166,595 153,593l0,-161l44,0M198,566C203,566 209,567 217,567C237,567 248,559 248,545C248,531 234,524 215,524l-17,0M221,684C125,684 47,609 47,516C47,421 125,346 221,346C318,346 394,421 394,516C394,609 318,684 222,684M221,646C293,646 346,587 346,515C346,443 293,384 221,385C149,385 95,443 95,515C95,587 149,646 220,646z"
   id="glyph1223" />
<glyph
   unicode="ρ"
   horiz-adv-x="579"
   d="M187,47C212,11 261,-11 319,-11C431,-11 544,76 544,248C544,397 452,498 311,498C241,498 186,473 145,434C101,394 62,334 62,199l0,-223C62,-96 65,-171 73,-198l119,0C185,-159 185,-80 185,-22l0,69M185,231C185,343 241,397 303,397C376,397 419,331 419,245C419,153 374,84 296,84C244,84 200,120 188,161C186,172 185,181 185,193z"
   id="glyph1225" />
<glyph
   unicode="˚"
   horiz-adv-x="300"
   d="M142,538C206,538 249,579 249,633C249,688 210,730 143,730C73,730 33,687 33,632C33,579 76,538 142,538M141,582C112,582 94,608 94,632C94,660 111,685 140,685C172,685 190,661 190,634C190,606 172,582 141,582z"
   id="glyph1227" />
<glyph
   unicode=""
   horiz-adv-x="400"
   d="M201,886C132,886 93,843 93,790C93,739 134,698 201,698C267,698 309,739 309,791C309,844 271,886 202,886M200,842C229,842 246,818 246,792C246,764 229,742 200,742C172,742 154,766 154,790C154,817 170,842 199,842z"
   id="glyph1229" />
<glyph
   unicode="s"
   horiz-adv-x="417"
   d="M36,24C72,4 125,-11 184,-11C313,-11 382,54 382,142C381,214 340,259 252,291C190,313 167,328 167,359C167,389 191,410 235,410C278,410 317,394 338,382l24,87C334,484 287,498 233,498C120,498 49,431 49,345C48,288 88,236 183,203C243,182 263,165 263,132C263,100 239,78 185,78C141,78 88,96 60,113z"
   id="glyph1231" />
<glyph
   unicode="ś"
   horiz-adv-x="417"
   d="M244,698l-87,-148l85,0l123,148M36,24C72,4 125,-11 184,-11C313,-11 382,54 382,142C381,214 340,259 252,291C190,313 167,328 167,359C167,389 191,410 235,410C278,410 317,394 338,382l24,87C334,484 287,498 233,498C120,498 49,431 49,345C48,288 88,236 183,203C243,182 263,165 263,132C263,100 239,78 185,78C141,78 88,96 60,113z"
   id="glyph1233" />
<glyph
   unicode="š"
   horiz-adv-x="417"
   d="M255,550l97,148l-84,0l-55,-91l-2,0l-54,91l-85,0l98,-148M36,24C72,4 125,-11 184,-11C313,-11 382,54 382,142C381,214 340,259 252,291C190,313 167,328 167,359C167,389 191,410 235,410C278,410 317,394 338,382l24,87C334,484 287,498 233,498C120,498 49,431 49,345C48,288 88,236 183,203C243,182 263,165 263,132C263,100 239,78 185,78C141,78 88,96 60,113z"
   id="glyph1235" />
<glyph
   unicode="ş"
   horiz-adv-x="417"
   d="M36,24C81,-1 136,-10 169,-10l2,0l-37,-71C185,-85 211,-98 211,-120C212,-141 192,-149 173,-149C156,-149 135,-143 118,-133l-17,-50C119,-195 147,-202 175,-202C236,-202 289,-180 289,-118C289,-78 255,-51 218,-47l24,42C334,12 382,69 382,142C382,214 340,259 252,291C190,313 167,328 167,359C167,389 191,410 235,410C278,410 317,394 338,382l24,87C334,484 287,498 233,498C120,498 49,431 49,345C49,288 88,236 183,203C243,182 263,165 263,132C263,100 239,78 185,78C141,78 88,96 60,113z"
   id="glyph1237" />
<glyph
   unicode=""
   horiz-adv-x="268"
   d="M36,24C81,-1 136,-10 169,-10l2,0l-37,-71C185,-85 211,-98 211,-120C212,-141 192,-149 173,-149C156,-149 135,-143 118,-133l-17,-50C119,-195 147,-202 175,-202C236,-202 289,-180 289,-118C289,-78 255,-51 218,-47l24,42C334,12 382,69 382,142C382,214 340,259 252,291C190,313 167,328 167,359C167,389 191,410 235,410C278,410 317,394 338,382l24,87C334,484 287,498 233,498C120,498 49,431 49,345C49,288 88,236 183,203C243,182 263,165 263,132C263,100 239,78 185,78C141,78 88,96 60,113z"
   id="glyph1239" />
<glyph
   unicode="ŝ"
   horiz-adv-x="417"
   d="M169,698l-97,-148l84,0l54,91l2,0l54,-91l84,0l-97,148M36,24C72,4 125,-11 184,-11C313,-11 382,54 382,142C381,214 340,259 252,291C190,313 167,328 167,359C167,389 191,410 235,410C278,410 317,394 338,382l24,87C334,484 287,498 233,498C120,498 49,431 49,345C48,288 88,236 183,203C243,182 263,165 263,132C263,100 239,78 185,78C141,78 88,96 60,113z"
   id="glyph1241" />
<glyph
   unicode="ș"
   horiz-adv-x="417"
   d="M36,24C72,4 125,-11 184,-11C313,-11 382,54 382,142C381,214 340,259 252,291C190,313 167,328 167,359C167,389 191,410 235,410C278,410 317,394 338,382l24,87C334,484 287,498 233,498C120,498 49,431 49,345C48,288 88,236 183,203C243,182 263,165 263,132C263,100 239,78 185,78C141,78 88,96 60,113M141,-233C217,-229 287,-195 287,-116C287,-82 267,-54 247,-40l-87,-16C175,-70 191,-92 191,-116C191,-152 157,-173 122,-179z"
   id="glyph1243" />
<glyph
   unicode="§"
   horiz-adv-x="542"
   d="M148,347C148,373 163,394 188,410C219,394 274,376 315,360C371,340 393,312 393,279C393,254 381,230 360,216C337,229 292,244 244,261C175,285 148,312 148,346M443,653C402,673 351,684 294,684C181,684 91,630 91,534C92,498 109,463 130,447C75,416 51,368 51,327C51,233 134,195 239,161C322,133 352,112 352,73C352,30 310,8 252,8C192,8 136,32 109,49l-27,-76C129,-58 195,-70 256,-70C349,-70 464,-29 464,85C464,128 440,161 422,176C464,205 491,244 491,297C491,394 414,433 313,464C240,487 198,506 198,546C198,582 236,606 294,606C351,606 393,591 421,576z"
   id="glyph1245" />
<glyph
   unicode=";"
   horiz-adv-x="236"
   d="M92,-113C131,-49 175,59 204,153l-129,-10C63,60 36,-45 8,-121M133,326C179,326 209,359 209,404C208,450 178,483 133,483C89,483 58,450 58,404C57,359 88,326 132,326z"
   id="glyph1247" />
<glyph
   unicode="7"
   horiz-adv-x="536"
   d="M53,650l0,-102l306,0l0,-2l-274,-546l130,0l275,571l0,79z"
   id="glyph1249" />
<glyph
   unicode=""
   horiz-adv-x="316"
   d="M22,389l0,-72l186,0l0,-1l-168,-316l94,0l168,334l0,55z"
   id="glyph1251" />
<glyph
   unicode=""
   horiz-adv-x="440"
   d="M3,650l0,-102l306,0l0,-2l-274,-546l130,0l275,571l0,79z"
   id="glyph1253" />
<glyph
   unicode="₇"
   horiz-adv-x="316"
   d="M22,242l0,-72l186,0l0,-1l-168,-316l94,0l168,334l0,55z"
   id="glyph1255" />
<glyph
   unicode=""
   horiz-adv-x="316"
   d="M22,655l0,-72l186,0l0,-1l-168,-316l94,0l168,334l0,55z"
   id="glyph1257" />
<glyph
   unicode=""
   horiz-adv-x="454"
   d="M430,487l-412,0l0,-101l285,0l0,-2C249,246 120,20 36,-103l118,-16C254,36 370,256 430,412z"
   id="glyph1259" />
<glyph
   unicode="⁷"
   horiz-adv-x="316"
   d="M22,832l0,-72l186,0l0,-1l-168,-316l94,0l168,334l0,55z"
   id="glyph1261" />
<glyph
   unicode=""
   horiz-adv-x="547"
   d="M475,487l-412,0l0,-101l285,0l0,-2C294,246 165,20 81,-103l118,-16C299,36 415,256 475,412z"
   id="glyph1263" />
<glyph
   unicode="σ"
   horiz-adv-x="576"
   d="M445,412C504,408 537,408 561,408l5,90C546,498 488,498 455,498l-66,0C376,498 324,498 296,498C138,498 35,398 35,238C35,82 141,-11 279,-11C399,-11 520,67 520,244C520,304 494,369 444,408M281,78C209,78 162,149 162,243C162,324 197,408 283,408C365,408 398,322 398,245C398,148 350,78 282,78z"
   id="glyph1265" />
<glyph
   unicode="6"
   horiz-adv-x="536"
   d="M438,659C423,660 403,660 376,657C283,649 205,617 145,561C77,496 32,394 32,269C32,109 119,-11 277,-11C415,-11 506,97 506,221C506,353 419,433 307,433C242,433 193,407 161,370l-3,0C174,460 240,544 376,560C401,563 421,563 439,563M276,81C197,81 156,151 154,237C154,254 157,266 162,276C181,315 222,343 268,343C340,343 381,290 381,214C381,136 340,81 277,81z"
   id="glyph1267" />
<glyph
   unicode=""
   horiz-adv-x="349"
   d="M282,394C273,395 258,394 243,393C177,389 129,371 91,335C49,297 22,236 22,164C22,73 74,-5 180,-5C260,-5 327,53 327,136C327,213 276,261 202,261C165,261 132,246 114,228l-2,0C124,279 167,319 244,326C257,328 272,327 282,326M179,61C133,61 109,99 109,142C109,150 111,157 113,162C123,184 146,201 173,201C216,201 238,170 238,131C238,91 214,61 180,61z"
   id="glyph1269" />
<glyph
   unicode=""
   horiz-adv-x="537"
   d="M439,659C424,660 404,660 377,657C284,649 206,617 146,561C78,496 33,394 33,269C33,109 120,-11 278,-11C416,-11 507,97 507,221C507,353 420,433 308,433C243,433 194,407 162,370l-3,0C175,460 241,544 377,560C402,563 422,563 440,563M277,81C198,81 157,151 155,237C155,254 158,266 163,276C182,315 223,343 269,343C341,343 382,290 382,214C382,136 341,81 278,81z"
   id="glyph1271" />
<glyph
   unicode="₆"
   horiz-adv-x="349"
   d="M282,247C273,248 258,247 243,246C177,242 129,224 91,188C49,150 22,89 22,17C22,-74 74,-152 180,-152C260,-152 327,-94 327,-11C327,66 276,114 202,114C165,114 132,99 114,81l-2,0C124,132 167,172 244,179C257,181 272,180 282,179M179,-86C133,-86 109,-48 109,-5C109,3 111,10 113,15C123,37 146,54 173,54C216,54 238,23 238,-16C238,-56 214,-86 180,-86z"
   id="glyph1273" />
<glyph
   unicode=""
   horiz-adv-x="349"
   d="M282,660C273,661 258,660 243,659C177,655 129,637 91,601C49,563 22,502 22,430C22,339 74,261 180,261C260,261 327,319 327,402C327,479 276,527 202,527C165,527 132,512 114,494l-2,0C124,545 167,585 244,592C257,594 272,593 282,592M179,327C133,327 109,365 109,408C109,416 111,423 113,428C123,450 146,467 173,467C216,467 238,436 238,397C238,357 214,327 180,327z"
   id="glyph1275" />
<glyph
   unicode=""
   horiz-adv-x="537"
   d="M449,611C192,604 40,452 40,242C40,91 131,-11 274,-11C392,-11 499,76 499,209C499,330 413,401 308,401C246,401 199,371 175,342l-2,1C193,433 279,514 457,523M275,81C205,81 162,138 162,214C162,240 168,261 185,279C203,300 234,319 274,319C335,319 377,273 377,202C377,120 325,81 276,81z"
   id="glyph1277" />
<glyph
   unicode="⁶"
   horiz-adv-x="349"
   d="M282,837C273,838 258,837 243,836C177,832 129,814 91,778C49,740 22,679 22,607C22,516 74,438 180,438C260,438 327,496 327,579C327,656 276,704 202,704C165,704 132,689 114,671l-2,0C124,722 167,762 244,769C257,771 272,770 282,769M179,504C133,504 109,542 109,585C109,593 111,600 113,605C123,627 146,644 173,644C216,644 238,613 238,574C238,534 214,504 180,504z"
   id="glyph1279" />
<glyph
   unicode=""
   horiz-adv-x="547"
   d="M457,611C200,604 48,452 48,242C48,91 139,-11 282,-11C400,-11 507,76 507,209C507,330 421,401 316,401C254,401 207,371 183,342l-2,1C201,433 287,514 465,523M283,81C213,81 170,138 170,214C170,240 176,261 193,279C211,300 242,319 282,319C343,319 385,273 385,202C385,120 333,81 284,81z"
   id="glyph1281" />
<glyph
   unicode="/"
   horiz-adv-x="337"
   d="M94,-40l244,725l-86,0l-244,-725z"
   id="glyph1283" />
<glyph
   unicode=" "
   horiz-adv-x="207"
   id="glyph1285" />
<glyph
   unicode=""
   horiz-adv-x="300"
   d="M151,-80C116,-80 89,-107 89,-142C89,-176 115,-204 150,-204C186,-204 211,-176 211,-142C211,-107 185,-80 151,-80z"
   id="glyph1287" />
<glyph
   unicode=""
   horiz-adv-x="300"
   d="M151,-201C185,-201 210,-172 210,-140C210,-107 185,-80 152,-80C117,-80 90,-107 90,-140C90,-172 117,-201 150,-201z"
   id="glyph1289" />
<glyph
   unicode=""
   horiz-adv-x="300"
   d="M166,528C188,576 244,594 244,655C244,703 203,737 151,737C96,737 61,705 41,663l42,-25C93,654 108,672 129,672C146,672 160,659 160,639C160,602 117,589 105,543z"
   id="glyph1291" />
<glyph
   unicode=""
   horiz-adv-x="300"
   d="M174,707C201,756 248,767 248,822C248,865 208,901 157,901C101,901 67,869 46,828l41,-26C97,818 114,837 134,837C152,837 165,825 165,806C165,774 130,765 115,722z"
   id="glyph1293" />
<glyph
   unicode=""
   horiz-adv-x="300"
   d="M-18,693l107,-146l72,0l-72,146M148,693l106,-146l72,0l-71,146z"
   id="glyph1295" />
<glyph
   unicode=""
   horiz-adv-x="300"
   d="M-71,832l125,-121l91,0l-87,121M128,832l124,-121l91,0l-86,121z"
   id="glyph1297" />
<glyph
   unicode=""
   horiz-adv-x="300"
   d="M154,423l42,0C270,423 311,466 311,521C311,552 302,581 290,604l-89,-15C214,569 221,547 221,527C221,503 209,487 170,487l-16,0z"
   id="glyph1299" />
<glyph
   unicode=""
   horiz-adv-x="300"
   d="M161,606l38,0C280,606 318,645 318,706C318,737 309,766 298,790l-89,-15C221,755 228,733 228,712C228,686 216,674 177,674l-16,0z"
   id="glyph1301" />
<glyph
   unicode=""
   horiz-adv-x="300"
   d="M86,-233C162,-229 232,-195 232,-116C232,-82 212,-54 192,-40l-87,-16C120,-70 136,-92 136,-116C136,-152 102,-173 67,-179z"
   id="glyph1303" />
<glyph
   unicode=""
   horiz-adv-x="300"
   d="M86,-232C162,-229 232,-195 232,-116C232,-82 212,-54 192,-40l-87,-16C120,-70 136,-92 136,-116C136,-152 102,-172 67,-179z"
   id="glyph1305" />
<glyph
   unicode="£"
   horiz-adv-x="536"
   d="M491,0l0,101l-281,0l0,2C238,128 258,157 268,191C276,219 276,249 275,280l129,0l0,85l-140,0C258,394 253,421 253,455C253,513 280,563 354,563C393,563 422,554 441,543l22,93C441,649 403,661 349,661C225,661 138,581 138,458C138,426 143,393 148,365l-86,0l0,-85l100,0C165,261 166,245 166,226C166,155 113,95 53,67l0,-67z"
   id="glyph1307" />
<glyph
   unicode=""
   horiz-adv-x="547"
   d="M499,0l0,97l-279,0l0,2C249,119 275,155 278,203C278,210 278,219 277,226l133,0l0,71l-146,0C261,313 258,330 258,348C258,413 292,457 359,457C395,457 426,449 446,438l22,90C445,541 404,553 354,553C223,553 143,465 143,351C143,333 146,315 149,297l-79,0l0,-71l94,0C166,215 167,203 167,191C167,137 124,92 61,66l0,-66z"
   id="glyph1309" />
<glyph
   unicode="∑"
   horiz-adv-x="527"
   d="M528,-90l0,101l-358,0l0,4l208,267l-197,263l0,4l318,0l0,101l-475,0l0,-81l221,-292l-233,-296l0,-71z"
   id="glyph1311" />
<glyph
   unicode="t"
   horiz-adv-x="351"
   d="M87,577l0,-90l-70,0l0,-92l70,0l0,-229C87,102 99,58 125,30C148,5 186,-11 231,-11C270,-11 302,-5 320,2l-2,94C304,92 293,90 270,90C223,90 207,121 207,180l0,215l117,0l0,92l-117,0l0,125z"
   id="glyph1313" />
<glyph
   unicode="τ"
   horiz-adv-x="435"
   d="M345,86C340,85 333,85 325,85C295,85 272,101 272,158l0,235l141,0l13,94l-280,0C49,487 11,471 -8,457l16,-72C29,389 54,393 103,393l46,0l0,-242C149,43 184,-11 279,-11C305,-11 328,-7 339,-1z"
   id="glyph1315" />
<glyph
   unicode="ŧ"
   horiz-adv-x="351"
   d="M324,395l0,92l-117,0l0,125l-120,-35l0,-90l-70,0l0,-92l70,0l0,-90l-65,0l0,-69l65,0l0,-70C87,102 99,58 125,30C148,5 186,-11 231,-11C270,-11 302,-5 320,2l-2,94C304,92 293,90 270,90C227,90 207,117 207,172l0,64l90,0l0,69l-90,0l0,90z"
   id="glyph1317" />
<glyph
   unicode="ť"
   horiz-adv-x="357"
   d="M87,577l0,-90l-70,0l0,-92l70,0l0,-229C87,102 99,58 125,30C148,5 186,-11 231,-11C270,-11 302,-5 320,2l-2,94C304,92 293,90 270,90C223,90 207,121 207,180l0,215l117,0l0,92l-117,0l0,125M305,539C338,549 400,586 400,658C400,688 383,716 367,727l-82,-15C298,698 308,677 308,656C308,625 291,598 273,585z"
   id="glyph1319" />
<glyph
   unicode="ţ"
   horiz-adv-x="351"
   d="M87,577l0,-90l-70,0l0,-92l70,0l0,-229C87,102 99,58 125,30C148,5 186,-11 231,-11C270,-11 302,-5 320,2l-2,94C304,92 293,90 270,90C223,90 207,121 207,180l0,215l117,0l0,92l-117,0l0,125M123,-236C199,-232 269,-198 269,-119C269,-85 249,-57 229,-43l-87,-16C157,-73 173,-95 173,-119C173,-155 139,-176 104,-182z"
   id="glyph1321" />
<glyph
   unicode="θ"
   horiz-adv-x="554"
   d="M278,-11C442,-11 519,137 519,360C519,574 445,721 283,721C121,721 35,565 35,360C35,116 126,-11 277,-11M157,408C157,530 201,634 278,634C357,634 397,534 397,408M398,319C398,176 361,76 280,76C205,76 158,168 158,319z"
   id="glyph1323" />
<glyph
   unicode="þ"
   horiz-adv-x="585"
   d="M66,673l0,-871l123,0l0,253l2,0C219,15 268,-11 329,-11C434,-11 550,69 550,249C550,405 454,500 345,498C273,498 222,467 191,419l-2,0l0,254M189,282C189,297 194,315 199,327C217,373 259,401 306,401C381,401 425,332 425,247C425,147 376,84 302,84C258,84 218,110 201,150C194,163 189,182 189,196z"
   id="glyph1325" />
<glyph
   unicode="3"
   horiz-adv-x="536"
   d="M40,34C75,11 143,-11 222,-11C383,-11 475,76 475,186C475,274 411,334 332,348l0,2C412,378 452,434 452,502C452,587 383,661 249,661C171,661 99,637 62,611l28,-89C117,540 170,563 223,563C294,563 327,526 327,482C327,417 255,391 198,391l-55,0l0,-90l57,0C275,301 347,268 347,191C348,140 310,87 216,87C154,87 93,112 68,127z"
   id="glyph1327" />
<glyph
   unicode=""
   horiz-adv-x="328"
   d="M46,302C64,313 98,328 134,328C174,328 191,308 191,286C191,248 143,235 108,235l-28,0l0,-58l29,0C157,177 204,159 204,118C204,89 176,62 125,62C89,62 48,77 30,88l-21,-65C35,7 83,-5 135,-5C241,-5 305,46 305,113C305,164 264,200 210,207l0,2C257,224 290,257 290,298C290,350 247,395 155,395C101,395 53,380 26,364z"
   id="glyph1329" />
<glyph
   unicode=""
   horiz-adv-x="476"
   d="M7,34C42,11 110,-11 189,-11C350,-11 442,76 442,186C442,274 378,334 299,348l0,2C379,378 419,434 419,502C419,587 350,661 216,661C138,661 66,637 29,611l28,-89C84,540 137,563 190,563C261,563 294,526 294,482C294,417 222,391 165,391l-55,0l0,-90l57,0C242,301 314,268 314,191C315,140 277,87 183,87C121,87 60,112 35,127z"
   id="glyph1331" />
<glyph
   unicode="₃"
   horiz-adv-x="328"
   d="M46,155C64,166 98,181 134,181C174,181 191,161 191,139C191,101 143,88 108,88l-28,0l0,-58l29,0C157,30 204,12 204,-29C204,-58 176,-85 125,-85C89,-85 48,-70 30,-59l-21,-65C35,-140 83,-152 135,-152C241,-152 305,-101 305,-34C305,17 264,53 210,60l0,2C257,77 290,110 290,151C290,203 247,248 155,248C101,248 53,233 26,217z"
   id="glyph1333" />
<glyph
   unicode=""
   horiz-adv-x="328"
   d="M46,568C64,579 98,594 134,594C174,594 191,574 191,552C191,514 143,501 108,501l-28,0l0,-58l29,0C157,443 204,425 204,384C204,355 176,328 125,328C89,328 48,343 30,354l-21,-65C35,273 83,261 135,261C241,261 305,312 305,379C305,430 264,466 210,473l0,2C257,490 290,523 290,564C290,616 247,661 155,661C101,661 53,646 26,630z"
   id="glyph1335" />
<glyph
   unicode=""
   horiz-adv-x="454"
   d="M18,-99C44,-110 98,-121 158,-121C297,-121 420,-46 420,74C420,157 354,205 275,217l0,2C343,237 394,290 394,358C394,445 316,499 206,499C137,499 67,476 30,451l23,-81C80,384 129,404 178,404C236,404 272,381 272,336C272,284 207,255 124,249l-23,-2l1,-87C116,161 136,162 156,162C240,162 293,128 293,75C293,12 232,-26 145,-26C100,-26 58,-18 32,-9z"
   id="glyph1337" />
<glyph
   unicode="³"
   horiz-adv-x="328"
   d="M46,745C64,756 98,771 134,771C174,771 191,751 191,729C191,691 143,678 108,678l-28,0l0,-58l29,0C157,620 204,602 204,561C204,532 176,505 125,505C89,505 48,520 30,531l-21,-65C35,450 83,438 135,438C241,438 305,489 305,556C305,607 264,643 210,650l0,2C257,667 290,700 290,741C290,793 247,838 155,838C101,838 53,823 26,807z"
   id="glyph1339" />
<glyph
   unicode=""
   horiz-adv-x="547"
   d="M60,-99C86,-110 140,-121 200,-121C339,-121 462,-46 462,74C462,157 396,205 317,217l0,2C385,237 436,290 436,358C436,445 358,499 248,499C179,499 109,476 72,451l23,-81C122,384 171,404 220,404C278,404 314,381 314,336C314,284 249,255 166,249l-23,-2l1,-87C158,161 178,162 198,162C282,162 335,128 335,75C335,12 274,-26 187,-26C142,-26 100,-18 74,-9z"
   id="glyph1341" />
<glyph
   unicode="¾"
   horiz-adv-x="799"
   d="M65,568C83,579 117,594 153,594C194,594 210,574 210,552C210,514 162,501 127,501l-28,0l0,-58l29,0C176,443 223,425 223,384C224,355 195,328 145,328C108,328 67,343 49,354l-21,-65C54,273 102,261 154,261C260,261 324,312 324,379C324,430 284,466 229,473l0,2C276,490 309,523 309,564C309,616 266,661 174,661C120,661 72,646 45,629M263,-11l373,672l-71,0l-373,-672M717,0l0,96l57,0l0,63l-57,0l0,235l-106,0l-181,-246l0,-52l198,0l0,-96M628,159l-106,0l-2,1l75,101C607,278 617,298 629,322l3,0C630,300 628,277 628,252z"
   id="glyph1343" />
<glyph
   unicode="˜"
   horiz-adv-x="300"
   d="M78,562C79,591 88,607 103,607C115,607 124,601 143,590C164,579 184,569 209,569C259,569 287,605 284,685l-59,0C222,651 214,642 198,642C186,642 172,651 156,660C135,671 116,681 92,681C45,681 14,638 16,562z"
   id="glyph1345" />
<glyph
   unicode=""
   horiz-adv-x="300"
   d="M77,715C79,743 88,758 102,758C116,758 128,750 146,740C166,729 185,721 210,721C259,721 285,756 283,833l-58,0C222,801 214,792 198,792C184,792 168,801 152,811C132,822 115,831 90,831C44,831 15,789 17,715z"
   id="glyph1347" />
<glyph
   unicode="΄"
   horiz-adv-x="302"
   d="M133,698l-49,-148l80,0l82,148z"
   id="glyph1349" />
<glyph
   unicode="™"
   horiz-adv-x="636"
   d="M28,674l0,-57l82,0l0,-216l70,0l0,216l82,0l0,57M624,401l-17,273l-101,0l-33,-97C467,553 461,527 455,498l-2,0C446,536 442,557 436,577l-31,97l-107,0l-18,-273l66,0l8,138C355,568 356,600 356,632l4,0C367,601 374,563 379,539l35,-133l68,0l38,131C527,565 536,601 543,632l4,0C548,596 548,565 548,539l8,-138z"
   id="glyph1351" />
<glyph
   unicode="2"
   horiz-adv-x="536"
   d="M484,0l0,102l-267,0l0,2l57,49C387,258 469,350 469,464C469,570 399,661 255,661C173,661 102,632 55,594l36,-87C124,532 173,561 230,561C315,561 346,510 346,452C345,366 273,288 120,146l-77,-71l0,-75z"
   id="glyph1353" />
<glyph
   unicode=""
   horiz-adv-x="333"
   d="M14,0l290,0l0,72l-157,0l0,3l28,23C241,155 297,205 297,278C297,339 251,395 154,395C98,395 49,376 19,353l26,-63C65,305 96,320 130,320C174,320 196,295 196,262C196,215 155,176 76,104l-62,-56z"
   id="glyph1355" />
<glyph
   unicode=""
   horiz-adv-x="472"
   d="M444,0l0,102l-267,0l0,2l57,49C347,258 429,350 429,464C429,570 359,661 215,661C133,661 62,632 15,594l36,-87C84,532 133,561 190,561C275,561 306,510 306,452C305,366 233,288 80,146l-77,-71l0,-75z"
   id="glyph1357" />
<glyph
   unicode="₂"
   horiz-adv-x="333"
   d="M14,-147l290,0l0,72l-157,0l0,3l28,23C241,8 297,58 297,131C297,192 251,248 154,248C98,248 49,229 19,206l26,-63C65,158 96,173 130,173C174,173 196,148 196,115C196,68 155,29 76,-43l-62,-56z"
   id="glyph1359" />
<glyph
   unicode=""
   horiz-adv-x="333"
   d="M14,266l290,0l0,72l-157,0l0,3l28,23C241,421 297,471 297,544C297,605 251,661 154,661C98,661 49,642 19,619l26,-63C65,571 96,586 130,586C174,586 196,561 196,528C196,481 155,442 76,370l-62,-56z"
   id="glyph1361" />
<glyph
   unicode=""
   horiz-adv-x="463"
   d="M437,0l0,96l-142,0C270,96 230,94 200,90l0,2l46,32C333,184 403,250 403,340C403,440 330,501 217,501C131,501 61,466 27,441l29,-79C89,383 136,403 182,403C240,403 279,375 279,319C279,250 215,191 78,104l-55,-37l0,-67z"
   id="glyph1363" />
<glyph
   unicode="²"
   horiz-adv-x="333"
   d="M14,443l290,0l0,72l-157,0l0,3l28,23C241,598 297,648 297,721C297,782 251,838 154,838C98,838 49,819 19,796l26,-63C65,748 96,763 130,763C174,763 196,738 196,705C196,658 155,619 76,547l-62,-56z"
   id="glyph1365" />
<glyph
   unicode=""
   horiz-adv-x="547"
   d="M477,0l0,96l-142,0C310,96 270,94 240,90l0,2l46,32C373,184 443,250 443,340C443,440 370,501 257,501C171,501 101,466 67,441l29,-79C129,383 176,403 222,403C280,403 319,375 319,319C319,250 255,191 118,104l-55,-37l0,-67z"
   id="glyph1367" />
<glyph
   unicode="u"
   horiz-adv-x="569"
   d="M502,487l-123,0l0,-294C379,179 376,166 372,155C359,124 327,89 278,89C213,89 187,141 187,222l0,265l-123,0l0,-286C64,42 145,-11 234,-11C321,-11 369,39 390,74l2,0l6,-74l108,0C504,40 502,88 502,146z"
   id="glyph1369" />
<glyph
   unicode="ú"
   horiz-adv-x="569"
   d="M318,698l-87,-148l85,0l123,148M502,487l-123,0l0,-294C379,179 376,166 372,155C359,124 327,89 278,89C213,89 187,141 187,222l0,265l-123,0l0,-286C64,42 145,-11 234,-11C321,-11 369,39 390,74l2,0l6,-74l108,0C504,40 502,88 502,146z"
   id="glyph1371" />
<glyph
   unicode="ŭ"
   horiz-adv-x="569"
   d="M152,688C152,616 193,553 284,553C367,553 416,608 416,688l-67,0C347,655 327,623 283,623C246,623 224,651 219,688M502,487l-123,0l0,-294C379,179 376,166 372,155C359,124 327,89 278,89C213,89 187,141 187,222l0,265l-123,0l0,-286C64,42 145,-11 234,-11C321,-11 369,39 390,74l2,0l6,-74l108,0C504,40 502,88 502,146z"
   id="glyph1373" />
<glyph
   unicode="û"
   horiz-adv-x="569"
   d="M242,698l-97,-148l84,0l54,91l2,0l54,-91l84,0l-97,148M502,487l-123,0l0,-294C379,179 376,166 372,155C359,124 327,89 278,89C213,89 187,141 187,222l0,265l-123,0l0,-286C64,42 145,-11 234,-11C321,-11 369,39 390,74l2,0l6,-74l108,0C504,40 502,88 502,146z"
   id="glyph1375" />
<glyph
   unicode="ü"
   horiz-adv-x="569"
   d="M188,563C223,563 248,591 248,624C248,660 222,686 189,686C153,686 126,659 126,624C126,591 152,563 187,563M387,563C422,563 447,591 447,624C447,660 422,686 387,686C352,686 326,659 326,624C326,591 351,563 386,563M502,487l-123,0l0,-294C379,179 376,166 372,155C359,124 327,89 278,89C213,89 187,141 187,222l0,265l-123,0l0,-286C64,42 145,-11 234,-11C321,-11 369,39 390,74l2,0l6,-74l108,0C504,40 502,88 502,146z"
   id="glyph1377" />
</font>
</defs>
</svg>
